Картковий будинок (Сезон 3) / House of Cards (Season 3) (2015) 720p Ukr/Eng | Sub Ukr

Нові коментарі

Нова тема   Відповісти
Автор Повідомлення
Anonymous 







2016-07-19 22:56  
Повний 1-ий сезон: | AVC | 720p | 1080p
Повний 2-ий сезон: | AVC | 720p | 1080p

Повний 3-ий сезон: | AVC | 720p | 1080p

Повний 4-ий сезон: | AVC | 720p | 1080p
П’ятий сезон: | AVC | 1080p
Картковий будинок (Сезон 3) / House of Cards (Season 3) (2015) 720p Ukr/Eng | Sub Ukr

Картковий будинок (Сезон 3) / House of Cards (Season 3) (2015) 720p Ukr/Eng | Sub Ukr


Жанр: драма, політичний трилер
Країна: США



Кінокомпанія: Netflix, Media Rights Capital, Panic Pictures (II), Trigger Street Productions
Режисер: Дейвід Фінчер, Джеймс Фоулі, Джоель Шумахер та інші.
Актори: Кевін Спейсі (Kevin Spacey), Робін Райт, Кейт Мара, Корі Стол, Майкл Келі, Молі Паркер та інші.

Сюжет:
Президент Андервуд бореться за утримання свого спадку. Клер прагне стати чимось більшим, ніж Перша леді. Найбільша загроза для них обох – це взаємна конкуренція.


Тривалість: 1 серія: ~50:00 (цілком серій: 13)
Перелік серій

1. Розділ двадцять сьомий / Chapter 27
2. Розділ двадцять восьмий / Chapter 28
3. Розділ двадцять дев’ятий / Chapter 29
4. Розділ тридцятий / Chapter 30
5. Розділ тридцять перший / Chapter 31
6. Розділ тридцять другий / Chapter 32
7. Розділ тридцять третій / Chapter 33
8. Розділ тридцять четвертий / Chapter 34
9. Розділ тридцять п’ятий / Chapter 35
10. Розділ тридцять шостий / Chapter 36
11. Розділ тридцять сьомий / Chapter 37
12. Розділ тридцять восьмий / Chapter 38
12. Розділ тридцять дев'ятий / Chapter 39
Якість: 720p
Відео:
кодек:
розмір кадру: 1280 х 640
бітрейт: ~4000 кб/с

Аудіо # 1:
мова: українська
переклад: багатоголосий закадровий | Студія «Гуртом»
кодек: 5.1
бітрейт: 640 кб/с

Аудіо # 2:
мова: англійська
переклад: оригінал
кодек: 5.1
бітрейт: 640 кб/с

Субтитри:
мова: українська | переклад: Федора Сидорука
тип: програмні (м'які)
формат: *.srt
Info
General
Unique ID : 191383761985731125166709540161029905891 (0x8FFB2BFB983BEC9DBE13D04246079DE3)
Complete name : E:\RIP\HoC-S3\done\House of Cards. S03E01 (2015) 720p [Ukr.Eng] [Hurtom].
Format :
Format version : Version 4 / Version 2
File size : 2.49 GiB
Duration : 58mn 27s
Overall bit rate : 6 086 Kbps
Encoded date : UTC 2016-07-19 20:17:33
Writing application : v8.6.1 ('Flying') 64bit
Writing library : libebml v1.3.3 + v1.4.4
DURATION : 00:54:04.192000000
NUMBER_OF_FRAMES : 822
NUMBER_OF_BYTES : 39635
_STATISTICS_WRITING_APP : v8.6.1 ('Flying') 64bit
_STATISTICS_WRITING_DATE_UTC : 2016-07-19 20:17:33
_STATISTICS_TAGS : BPS DURATION NUMBER_OF_FRAMES NUMBER_OF_BYTES
Attachment : Poster

Video
ID : 1
Format : AVC
Format/Info : Advanced Video Codec
Format profile : [email protected]
Format settings, CABAC : Yes
Format settings, ReFrames : 4 frames
Codec ID : V_MPEG4/ISO/AVC
Duration : 58mn 27s
Bit rate : 4 800 Kbps
Width : 1 280 pixels
Height : 640 pixels
Display aspect ratio : 2.000
Frame rate mode : Constant
Frame rate : 23.976 fps
Color space : YUV
Chroma subsampling : 4:2:0
Bit depth : 8 bits
Scan type : Progressive
Bits/(Pixel*Frame) : 0.244
Stream size : 1.91 GiB (77%)
Writing library : core 130 r2273 b3065e6
Encoding settings : cabac=1 / ref=4 / deblock=1:-1:-1 / analyse=0x3:0x113 / me=umh / subme=9 / psy=1 / psy_rd=1.00:0.10 / mixed_ref=1 / me_range=40 / chroma_me=1 / trellis=2 / 8x8dct=1 / cqm=0 / deadzone=21,11 / fast_pskip=1 / chroma_qp_offset=-3 / threads=6 / lookahead_threads=1 / sliced_threads=0 / nr=0 / decimate=1 / interlaced=0 / bluray_compat=0 / constrained_intra=0 / bframes=10 / b_pyramid=2 / b_adapt=2 / b_bias=0 / direct=3 / weightb=1 / open_gop=0 / weightp=2 / keyint=230 / keyint_min=23 / scenecut=40 / intra_refresh=0 / rc_lookahead=80 / rc=2pass / mbtree=1 / bitrate=4800 / ratetol=1.0 / qcomp=0.70 / qpmin=0 / qpmax=50 / qpstep=6 / cplxblur=20.0 / qblur=0.5 / ip_ratio=1.40 / aq=1:1.00
Language : English
Default : Yes
Forced : No
DURATION : 00:58:27.504000000
NUMBER_OF_FRAMES : 84096
NUMBER_OF_BYTES : 2105518746
_STATISTICS_WRITING_APP : v8.6.1 ('Flying') 64bit
_STATISTICS_WRITING_DATE_UTC : 2016-07-19 20:17:33
_STATISTICS_TAGS : BPS DURATION NUMBER_OF_FRAMES NUMBER_OF_BYTES

Audio #1
ID : 2
Format : AC-3
Format/Info : Audio Coding 3
Mode extension : CM (complete main)
Format settings, Endianness : Big
Codec ID : A_AC3
Duration : 58mn 27s
Bit rate mode : Constant
Bit rate : 640 Kbps
Channel count : 2 channels
Channel positions : Front: L R
Sampling rate : 48.0 KHz
Bit depth : 16 bits
Compression mode : Lossy
Stream size : 268 MiB (11%)
Title : Оригінал
Language : English
Default : No
Forced : No

Audio #2
ID : 3
Format : AC-3
Format/Info : Audio Coding 3
Mode extension : CM (complete main)
Format settings, Endianness : Big
Codec ID : A_AC3
Duration : 58mn 27s
Bit rate mode : Constant
Bit rate : 640 Kbps
Channel count : 2 channels
Channel positions : Front: L R
Sampling rate : 48.0 KHz
Bit depth : 16 bits
Compression mode : Lossy
Stream size : 268 MiB (11%)
Title : Студія Гуртом
Language : Ukrainian
Default : Yes
Forced : Yes

Text
ID : 4
Format : UTF-8
Codec ID : S_TEXT/UTF8
Codec ID/Info : UTF-8 Plain Text
Title : переклад: Федора Сидорука
Language : Ukrainian
Default : No
Forced : No
Скріншоти
Джерело:
Особиста оцінка: 9 - давно не бачив настільки якісне кіно


Авторський реліз (завантажувати можна без реєстрації)
 Трекер:    Зареєстрований   

Завантажити / скачати серіал українською



відео для новачків



 Зареєстрований:   2016-11-19 10:06
 Розмір:   26.06 GB 
 Оцінка серіалу:   7.8/10 (Голосів: 48)
   
adamantick 
Новенький


З нами з: 06.02.12
Востаннє: 24.11.20
Повідомлень: 15

2016-07-22 19:05  
бомбезний серіал!!))
Anonymous 







2016-11-19 10:06  
Остання, 13-та серія.
[Captain] 
Попереджень: 1
Попереджень: 1 


З нами з: 18.02.12
Востаннє: 29.11.20
Повідомлень: 2338

2016-12-04 20:38  
Чи буде четвертий сезон?
Anonymous 







2016-12-06 07:34  
[Captain]
Буде але за тиждень чи два.

[Captain] 
Попереджень: 1
Попереджень: 1 


З нами з: 18.02.12
Востаннє: 29.11.20
Повідомлень: 2338

2016-12-08 17:43  
NeetScrool
ок, дякую.

Anonymous 







2017-01-03 00:14  
Відео до 4 сезону готове. Скоро викладу.
Anonymous 







2017-01-04 22:42  
sergey-astral 
Свій


З нами з: 05.09.16
Востаннє: 02.12.20
Повідомлень: 91

2019-07-10 14:48  
Шановні, будь ласка, станьте до роздачі.
Ваш часовий пояс: GMT + 2 Години

Нова тема   Відповісти