Завантажити та скачати торренти українською


Рінгери: Повелитель фанатів / Ringers: Lord of the Fans (2005) Eng | Sub Ukr

Нові коментарі

Нова тема   Відповісти
Автор Повідомлення
Demrandir 
Свій


З нами з: 12.10.13
Востаннє: 21.02.17
Повідомлень: 72

2016-07-19 13:14  
Рінгери: Повелитель фанатів / Ringers: Lord of the Fans (2005) Eng | Sub Ukr

Рінгери: Повелитель фанатів / Ringers: Lord of the Fans (2005) Eng | Sub Ukr


Жанр: документальний
Країна: США



Телеканал / кіностудія: Planet BB Entertainment, Stormcrow Entertainment
Режисер: Карлін Кордова / Carlene Cordova
Актори: Елайджа Вуд / Elijah Wood, Єн Маккеллен / Ian McKellen, Віґо Мортенсен / Viggo Mortensen, Орландо Блум / Orlando Bloom, Джон Різ-Девіс / John Rhys-Davies, Шон Естін / Sean Astin, Біллі Бойд / Billy Boyd, Домінік Монаґан / Dominic Monaghan, Енді Серкіс / Andy Serkis

Сюжет:
"Рінгери: Повелитель фанатів" - це повнометражний документальний фільм, який досліджує вплив "Володаря перснів" на західну масову культуру протягом останніх 50-ти років. "Рінгери" охоплює вплив Толкіна на поп-культуру від перших видань "Хоббіта" у 1937 році і "Володаря перснів" у 50-х роках, крізь контркультуру хіппі 60-х, рок-н-ролл 70-х, перші анімаційні екранізації кінця 70-х і до трилогії Пітера Джексона та сучасної інтернет-манії. Містить інтерв'ю зі знаменитостями кіно та музики, серед яких Пітер Джексон, Елайджа Вуд, Єн Маккеллен, Віґо Мортенсен, Орландо Блум, Джон Різ-Девіс, Шон Естін, Біллі Бойд, Домінік Монаґан, Енді Серкіс, Девід Керредін та ін.


Тривалість: 01:37:23
Якість:
Відео:
кодек:
розмір кадру: 656 х 480
бітрейт: 1812 кб/с

Аудіо:
мова: англійська
переклад: оригінал
кодек: 2.0
бітрейт: 192 кб/с

Субтитри:
мова: українська (повні) - переклад Demrandir
тип: програмні (м'які)
формат: *.srt
Info

General
Complete name : F:\The Lord of the Rings bonus\Ringers.Lord.of.the.Fans.2005..Ukr.by.Demrandir\Ringers.Lord.of.the.Fans.2005..Ukr.by.Demrandir.avi
Format : AVI
Format/Info : Audio Video Interleave
File size : 1.37 GiB
Duration : 1h 37mn
Overall bit rate : 2 014 Kbps
Writing application : VirtualDubModRus 1.5.10.2 (build 2542/release)
Writing library : VirtualDubMod build 2542/release

Video
ID : 0
Format : MPEG-4 Visual
Format profile : Advanced [email protected]
Format settings, BVOP : 1
Format settings, QPel : No
Format settings, GMC : No warppoints
Format settings, Matrix : Default (H.263)
Codec ID :
Codec ID/Hint :
Duration : 1h 37mn
Bit rate : 1 812 Kbps
Width : 656 pixels
Height : 480 pixels
Display aspect ratio : 4:3
Frame rate : 23.976 (24000/1001) fps
Color space : YUV
Chroma subsampling : 4:2:0
Bit depth : 8 bits
Scan type : Progressive
Compression mode : Lossy
Bits/(Pixel*Frame) : 0.240
Stream size : 1.23 GiB (90%)
Writing library : 67

Audio
ID : 1
Format : AC-3
Format/Info : Audio Coding 3
Format profile : Dolby Digital
Mode extension : CM (complete main)
Format settings, Endianness : Big
Codec ID : 2000
Duration : 1h 37mn
Bit rate mode : Constant
Bit rate : 192 Kbps
Channel(s) : 2 channels
Channel positions : Front: L R
Sampling rate : 48.0 KHz
Frame rate : 31.250 fps (1536 spf)
Compression mode : Lossy
Delay relative to video : 15ms
Stream size : 134 MiB (10%)
Alignment : Split accross interleaves
Interleave, duration : 42 ms (1.00 video frame)
Interleave, preload duratio : 500 ms
Скріншоти








Зауваження:Власне, якось натрапив на цей фільм, переглянув. На мій погляд, він цікавий. З подивом виявив, що за 10 років його не переклали ані на українську, ані на російську. Вирішив перекласти. Переклад любительський, але від людини, яка вже багато років захоплюється творами Толкіна та фільмами ПіДжея. зробив програмою MeGUI з ISO-образу оригінального диска, знайденого в інтернеті. Субтитри лежать окремим файлом, що зручно для тих, хто вже має цей фільм.

Хоббіт: Трилогія [Розширена версія] Remux тут

Володар перснів: Трилогія [Розширена версія] Remux тут

Джерело:
Особиста оцінка: 8 - мені сподобалося


Золотий реліз (завантажене не впливає на рейтинг)
 Трекер:    Зареєстрований   

Завантажити / скачати торрент



відео для новачків



 Зареєстрований:   2016-07-19 13:14
 Розмір:   1.37 GB 
 Оцінка:   10/10 (Голосів: 3)
   
Ваш часовий пояс: GMT + 2 Години

Нова тема   Відповісти