Листоноша Пет / Postman Pat (Сезон 3-8, серії 68 з 80) (2003) AVC Upscale 720p

Нові коментарі

Нова тема   Відповісти
Останній раз роздавалося sergiyko.5 (2020-11-26)
Автор Повідомлення
sergiyko.5 
Забанено
Забанено


З нами з: 25.02.16
Востаннє: 29.10.20
Повідомлень: 3648

2016-07-18 19:13  
Листоноша Пет / Postman Pat (Сезон 3-8, серії 68 з 80) (2003) AVC Upscale 720p

Листоноша Пет / Postman Pat (Сезон 3-8, серії 68 з 80) (2003) AVC Upscale 720p

Жанр: ляльковий мультсеріал
Країна: Великобританія

Режисер: Кріс Тейлор

Сюжет:
Дозвольте представити: «Листоноша Пет».
А також його родина. А також його неймовірно шкідливий кіт. А також всі жителі маленького містечка,
де Пет живе і працює. День за днем вони мають багато пригод і відкриттів.
З істинно британською витримкою Пет буде виплутуватися з найскладніших ситуацій
і кожен день пізнавати щось нове.



Тривалість:
1 серія: 14:35 (цілком серій: 68)

Якість:

Відео: кодек: розмір кадру: 1280 х 720 бітрейт: 1500 кб/с (Відео отримано апскейлом запису каналу QTV)
Аудіо: мова: українська переклад: багатоголосий закадровий кодек: 2.0 бітрейт: 192 кб/с
Джерело озвучення:
Перелік серій
Сезон 3
01. Змій що полетів
02. Голодна коза
03. Машина для виготовлення морозива
04. Великі перегони у Гріндейлі
05
06. Фокуси
07. Плямиста недуга
08. Кінокамера
09.
10. Поштовий голуб
11. Добре виконана робота
12. Зелений кролик
13. Великі метелики

Сезон 4
01. Клопоти з поїздом
02
03. Узбережжя моря
04. День обміну роботою
05. Качка Дотті
06. Поп-зірки
07. Полювання на динозавра
08. Безсонна ніч
09. Літній ярмарок
10. Залізничний інспектор
11
12. Порятунок ракети
13. Художній шедевр

Сезон 5
02. Вередливий транспорт
03. Подарунок-сюрприз
04. Досконала піцца
05. Весняний бал
06. Гроза
07. Грайливі домашні тваринки
08. Рожеві капці
09. Поїзд-втікач
10. Виставка тварин
11. Гонитва на дикому заході
12. Несподіваний пікнік
13. Радіо Гріндейла

Сезон 6
02. Віднесені вітром
03. Вечір боулінга
04. Святкове вбрання
05. Чарівна лампа
06. Вівці бешкетниці
07. Безлюдний острів
08. Мишки
10. Щасливий порятунок
11. День нових рекордів
12. Зниклі речі
13. Літаюча пошта

Сезон 7
02
03
04
05
06
09
10
11
12
14. Схованка їжачка

Сезон 8
01. Ніколи не здаватися
02
04. Уславлений полісмен
05. Метушливий день
06. Зниклий ведмедик
07
08
09
10
11
13
14
Info
General
Unique ID : 191485763395250898091059609035365738865 (0x900ED10A61F3C324A6108625722CE971)
Complete name : E:\Torrents\Mult_2\Postman Pat 2004 \S03E03.Ice Cream Machine..
Format :
Format version : Version 2
File size : 174 MiB
Duration : 14mn 37s
Overall bit rate : 1 664 Kbps
Encoded date : UTC 2016-07-18 14:31:18
Writing application : v9.1.0 ('Little Earthquakes') 32bit
Writing library : libebml v1.3.3 + v1.4.4

Video
ID : 1
Format : AVC
Format/Info : Advanced Video Codec
Format profile : [email protected]
Format settings, CABAC : Yes
Format settings, ReFrames : 7 frames
Codec ID : V_MPEG4/ISO/AVC
Duration : 14mn 37s
Bit rate : 1 470 Kbps
Width : 1 280 pixels
Height : 720 pixels
Display aspect ratio : 16:9
Frame rate mode : Constant
Frame rate : 25.000 fps
Color space : YUV
Chroma subsampling : 4:2:0
Bit depth : 8 bits
Scan type : Progressive
Bits/(Pixel*Frame) : 0.064
Stream size : 154 MiB (88%)
Title : rip by sergiyko
Writing library : core 148 r2692 64f4e24
Encoding settings : cabac=1 / ref=7 / deblock=1:0:0 / analyse=0x3:0x113 / me=umh / subme=9 / psy=1 / psy_rd=0.40:0.00 / mixed_ref=1 / me_range=16 / chroma_me=1 / trellis=2 / 8x8dct=1 / cqm=0 / deadzone=21,11 / fast_pskip=1 / chroma_qp_offset=-2 / threads=6 / lookahead_threads=1 / sliced_threads=0 / nr=0 / decimate=1 / interlaced=0 / bluray_compat=0 / constrained_intra=0 / bframes=5 / b_pyramid=2 / b_adapt=2 / b_bias=0 / direct=3 / weightb=1 / open_gop=0 / weightp=2 / keyint=250 / keyint_min=25 / scenecut=40 / intra_refresh=0 / rc_lookahead=50 / rc=2pass / mbtree=1 / bitrate=1470 / ratetol=1.0 / qcomp=0.60 / qpmin=0 / qpmax=69 / qpstep=4 / cplxblur=20.0 / qblur=0.5 / ip_ratio=1.40 / aq=1:0.60
Language : English
Default : Yes
Forced : No

Audio
ID : 2
Format : AC-3
Format/Info : Audio Coding 3
Mode extension : CM (complete main)
Format settings, Endianness : Big
Codec ID : A_AC3
Duration : 14mn 37s
Bit rate mode : Constant
Bit rate : 192 Kbps
Channel(s) : 2 channels
Channel positions : Front: L R
Sampling rate : 48.0 KHz
Frame rate : 31.250 fps (1536 spf)
Compression mode : Lossy
Delay relative to video : 9ms
Stream size : 20.1 MiB (12%)
Title : MOV 2.0ch 192kbps | QTV
Language : Ukrainian
Default : Yes
Forced : No
Скріншоти:


Нові серії будуть додаватись після запису з трансляції.

Реліз: sergiyko


Срібний реліз (на рейтинг впливає 50% завантаженого)
 Трекер:    Зареєстрований   

Завантажити / скачати мультфільм українською



відео для новачків



 Зареєстрований:   2016-12-14 23:43
 Розмір:   13.3 GB 
 Оцінка мультсеріалу:   9.8/10 (Голосів: 10)
   
sergiyko.5 
Забанено
Забанено


З нами з: 25.02.16
Востаннє: 29.10.20
Повідомлень: 3648

2016-07-18 19:14  
Ось для ознайомлення:


Hanway 
Відео Гуртом - запис з ТБ
Відео Гуртом - запис з ТБ


З нами з: 20.05.11
Востаннє: 14.04.21
Повідомлень: 752

2016-07-19 19:35  
Навіщо робити безглуздий апскейл звичайного сатріпу?
sergiyko.5 
Забанено
Забанено


З нами з: 25.02.16
Востаннє: 29.10.20
Повідомлень: 3648

2016-07-20 09:23  
Додав 2 серію 3 сезону та 8 серію 4.
sergiyko.5 
Забанено
Забанено


З нами з: 25.02.16
Востаннє: 29.10.20
Повідомлень: 3648

2016-07-21 20:05  
Додав 1,11,13 серії 3 сезону. Перезавантажте торент.
sergiyko.5 
Забанено
Забанено


З нами з: 25.02.16
Востаннє: 29.10.20
Повідомлень: 3648

2016-07-25 11:42  
Додав 12 серію 3 сезону, 4 та 6 - 4 сезону, 13 - 6 сезону.
sergiyko.5 
Забанено
Забанено


З нами з: 25.02.16
Востаннє: 29.10.20
Повідомлень: 3648

2016-10-04 13:36  
Додав 4,6,8 серії 3 сезону, 1 серію 4 сезону.
sergiyko.5 
Забанено
Забанено


З нами з: 25.02.16
Востаннє: 29.10.20
Повідомлень: 3648

2016-10-09 23:12  
Додав нові 9 серій.
sergiyko.5 
Забанено
Забанено


З нами з: 25.02.16
Востаннє: 29.10.20
Повідомлень: 3648

2016-10-20 15:02  
Додав загалом 23 серії.
sergiyko.5 
Забанено
Забанено


З нами з: 25.02.16
Востаннє: 29.10.20
Повідомлень: 3648

2016-12-14 23:43  
Додав серії 7 та 8 сезонів.
barcafan92 
Новенький


З нами з: 11.04.16
Востаннє: 08.03.21
Повідомлень: 4

2017-06-11 13:07  
Чи варто чекати перші два сезони?
sergiyko.5 
Забанено
Забанено


З нами з: 25.02.16
Востаннє: 29.10.20
Повідомлень: 3648

2017-06-11 13:40  
barcafan92 написано:
Чи варто чекати перші два сезони?

Думаю, ні.

56348gop 
Свій


З нами з: 03.12.16
Востаннє: 27.03.21
Повідомлень: 90

2017-09-06 16:55  
А серії з субтитрами є?
sergiyko.5 
Забанено
Забанено


З нами з: 25.02.16
Востаннє: 29.10.20
Повідомлень: 3648

2017-09-06 17:43  
56348gop написано:
А серії з субтитрами є?

в мене немає.

beznezhna 
Новенький


З нами з: 10.05.10
Востаннє: 28.01.20
Повідомлень: 4

2019-09-24 23:52  
Вітаю! Встаньте будь ласка на роздачу
vasya_p 
Новенький


З нами з: 29.05.19
Востаннє: 08.03.21
Повідомлень: 1

2021-02-28 21:13  
Привіт! Роздайте хтось торрент. Дуже треба. Дитина дуже сильно полюбила цей мультик. Але 3й сезон у мене трохи глюкнутий з пошкодженнями.
Хочу викачати його ще раз.

Додано через 1 хвилину 52 секунди:

Також хочу викачати повністю 7 і 8-й. Бо маю лиш пру серій на ноутбуці. Дууужжжее треба.

Masanchick 
VIP


З нами з: 08.04.11
Востаннє: 14.04.21
Повідомлень: 1615

2021-02-28 21:30  
vasya_p
Ось ви хочете , щоб хтось став на роздачу, а скажіть будь ласка чому ви тікаєте з роздач?
Що вам заважає побути на них?
А що до вашого питання, можете запитати у пана сергійка чи збереглися у нього записи цього релізу, шукайте його на Мазепа торент

Ваш часовий пояс: GMT + 2 Години

Нова тема   Відповісти