Карапузи зустрічаються з Торнберрі / Rugrats Go Wild (2003) 720p Ukr/Eng | Sub Eng

Нові коментарі

Нова тема   Відповісти
Автор Повідомлення
Anonymous 







2016-07-17 19:16  
Карапузи зустрічаються з Торнберрі / Rugrats Go Wild (2003) 720p Ukr/Eng | Sub Eng



Жанр: мультфільм, сімейний, пригоди, комедія
Країна: США



Кінокомпанія: Klasky-Csupo, Nickelodeon Movies, Viacom International
Режисер: Джон Енг / John Eng, Нортон Вірген / Norton Virgien
Актори: Елізабет Дейлі / Elizabeth Daily, Ненсі Картрайт / Nancy Cartwright, Кет Саусі / Kath Soucie, Брюс Вілліс / Bruce Willis та інші

Сюжет:
У цьому мультику спритні аніматори "подружили" героїв своїх найвідоміших кінопроектів - невгамовних карапузів і славну сімейку Торнбері! Ваші улюблені карапузи вирушають в екзотичну подорож!
Жити без пригод грудняки категорично не бажають, а пригоди явно небайдужі до забавних малюків. Після того, як судно, на якому плили карапузи "благополучно" затонуло, компанія дітлахів-непосид висаджується ... на незаселений острів! Але найцікавіше попереду: з'ясувалося, що малюсінькі колеги Робінзона Крузо виявилися на чудовому тропічному острові не одні!
Хто, як ви думаєте, складе карапузам "гідну" компанію й не дасть нудьгувати ні хвилини? Ну, звичайно ж, дика сімейка Торнберрі в повному складі!


Рейтинг MPAA: PG - рекомендується присутність батьків
Вікова категорія: 6+

Тривалість: 01:20:49
Якість: 720p
Відео:
кодек:
розмір кадру: 1280 х 534
бітрейт: 4087 Кбіт/с

Аудіо # 1:
мова: українська
переклад: багатоголосий закадровий
кодек: 2.0
бітрейт: 192 Кбіт/с

Аудіо # 2:
мова: англійська
переклад: оригінал
кодек: 5.1
бітрейт: 384 Кбіт/с

Субтитри:
мова: англійська
тип: програмні (м'які)
формат: *.srt

Збережено оригінальні розділи
Info
Код:
Complete name               : Rugrats Go Wild (2003) [Ukr,Eng sub.Eng] 720p [Hurtom].
Format                      :
Format version              : Version 4 / Version 2
File size                   : 2.63 GiB
Duration                    : 1 h 20 min
Overall bit rate            : 4 666 kb/s
Movie name                  : Карапузи зустрічаються з Торнберрі / Rugrats Go Wild (2003) [Ukr,Eng sub.Eng] 720p [Hurtom-igor911]
Encoded date                : UTC 2016-07-08 13:19:53
Writing application         : mkvmerge v9.2.0 ('Photograph') 64bit
Writing library             : libebml v1.3.3 + libmatroska v1.4.4
Cover                       : Yes
Attachments                 : cover.jpg

Video
ID                          : 1
Format                      : AVC
Format/Info                 : Advanced Video Codec
Format profile              : [email protected]
Format settings, CABAC      : No
Format settings, ReFrames   : 2 frames
Codec ID                    : V_MPEG4/ISO/AVC
Duration                    : 1 h 20 min
Bit rate                    : 4 087 kb/s
Width                       : 1 280 pixels
Height                      : 534 pixels
Display aspect ratio        : 2.40:1
Frame rate mode             : Constant
Frame rate                  : 23.976 (23976/1000) FPS
Color space                 : YUV
Chroma subsampling          : 4:2:0
Bit depth                   : 8 bits
Scan type                   : Progressive
Bits/(Pixel*Frame)          : 0.249
Stream size                 : 2.31 GiB (88%)
Title                       : Карапузи зустрічаються з Торнберрі / Rugrats Go Wild (2003) 720p [-Azureus-]
Language                    : English
Default                     : Yes
Forced                      : No
Color range                 : Limited
Color primaries             : BT.709
Transfer characteristics    : BT.709
Matrix coefficients         : BT.709

Audio #1
ID                          : 2
Format                      : AC-3
Format/Info                 : Audio Coding 3
Mode extension              : CM (complete main)
Format settings, Endianness : Big
Codec ID                    : A_AC3
Duration                    : 1 h 20 min
Bit rate mode               : Constant
Bit rate                    : 192 kb/s
Channel(s)                  : 2 channels
Channel positions           : Front: L R
Sampling rate               : 48.0 kHz
Frame rate                  : 31.250 FPS (1536 spf)
Compression mode            : Lossy
Stream size                 : 111 MiB (4%)
Title                       : MVO [K1] 2.0 192 kbps [Hurtom-taraskill1,xslim]
Language                    : Ukrainian
Default                     : Yes
Forced                      : No

Audio #2
ID                          : 3
Format                      : AC-3
Format/Info                 : Audio Coding 3
Mode extension              : CM (complete main)
Format settings, Endianness : Big
Codec ID                    : A_AC3
Duration                    : 1 h 20 min
Bit rate mode               : Constant
Bit rate                    : 384 kb/s
Channel(s)                  : 6 channels
Channel positions           : Front: L C R, Side: L R, LFE
Sampling rate               : 48.0 kHz
Frame rate                  : 31.250 FPS (1536 spf)
Compression mode            : Lossy
Stream size                 : 222 MiB (8%)
Title                       : Original 5.1 384 kbps
Language                    : English
Default                     : No
Forced                      : No

Text
ID                          : 4
Format                      : UTF-8
Codec ID                    : S_TEXT/UTF8
Codec ID/Info               : UTF-8 Plain Text
Duration                    : 1 h 20 min
Bit rate                    : 82 b/s
Count of elements           : 1746
Stream size                 : 48.7 KiB (0%)
Language                    : English
Default                     : No
Forced                      : No

Menu
00:00:00.000                : en:Chapter 1
00:04:53.000                : en:Chapter 2
00:09:43.000                : en:Chapter 3
00:12:12.000                : en:Chapter 4
00:16:53.000                : en:Chapter 5
00:21:14.000                : en:Chapter 6
00:27:07.000                : en:Chapter 7
00:32:45.000                : en:Chapter 8
00:40:04.000                : en:Chapter 9
00:47:47.000                : en:Chapter 10
00:53:14.000                : en:Chapter 11
00:58:32.000                : en:Chapter 12
01:05:21.000                : en:Chapter 13
01:09:43.000                : en:Chapter 14
01:13:04.000                : en:Chapter 15


Джерело: &
Подяки за українську доріжку: taraskill1 - зведення, xslim - запис з ТБ.


ЗАЛИШАЙТЕСЬ ЯКОМОГА ДОВШЕ НА РОЗДАЧІ!
СКАЧАВ САМ - ДАЙ СКАЧАТИ ІНШИМ


Срібний реліз (на рейтинг впливає 50% завантаженого)
 Трекер:    Зареєстрований   

Завантажити / скачати мультфільм українською



відео для новачків



 Зареєстрований:   2016-07-17 19:16
 Розмір:   2.63 GB 
 Оцінка мультфільму:   4.8/10 (Голосів: 19)
   
Інші релізи
Ваш часовий пояс: GMT + 2 Години

Нова тема   Відповісти