Десяте королівство (Серії 1-5) / The 10th Kingdom (Episodes 1-5) (2000) 720p 2хUkr/Eng | Sub Eng

Нові коментарі

Нова тема   Відповісти
Автор Повідомлення
Anonymous 







2016-07-17 09:43  
Десяте королівство (Серії 1-5) / The 10th Kingdom (Episodes 1-5) (2000) 720p 2хUkr/Eng | Sub Eng

Десяте королівство (Серії 1-5) / The 10th Kingdom (Episodes 1-5) (2000) 720p 2хUkr/Eng | Sub Eng

Альтернативні постери та обкладинки




повнорозмірні зображення відкриються по кліку (з натиснутим CTRL чи кліком середньою кнопкою мишки - у новій вкладці)


Жанр: сімейний, фентезі, пригодницький, комедія, детектив, екшн, мелодрама, романтичний
Країна: Велика Британія, Німеччина, США



Кінокомпанія: Babelsberg Film und Fernsehen, Carnival Film & Television, Hallmark Entertainment, NBC Studios, Production Line
Режисер: Девід Карсон / David Carson
Актори: Кімберлі Вільямс-Пейслі / Kimberly Williams-Paisley, Скотт Коен / Scott Cohen, Джон Ларрокет / John Larroquette, Діана Вейст / Dianne Wiest, Деніел Лапейн / Daniel Lapaine, Ед О’Ніл / Ed O'Neill, Рутґер Гауер / Rutger Hauer та інші

Сюжет:
Казкова пригода зачарованого принца і шляхетної дівчини, яка відбувається у світах, з'єднаних магічними дзеркалами-порталами. Все почалося в момент, коли зла королева обміняла тілами спадкоємця четвертого королівства та собаку, а той втік магічним дзеркалом у сучасний Нью-Йорк. Там він натрапляє на Вірджинію та її батька Тоні. Але коли вони спробували втекти у світ принца, Вірджинію викрали Тролі, а Тоні із спадкоємцем трону, Венделом, опинилися у в'язниці. Тим часом зла королева готує коронацію фальшивого наставника, щоб заволодіти цілим королівством і помститися Білосніжці...


Вікова категорія: 12+

Тривалість: 1 серія: 01:25:00 (цілком серій: 5)
Якість: 720p
Відео:
кодек:
розмір кадру: 1280 х 720
бітрейт: 5878-6216 Кбіт/с [crf=18]

Аудіо # 1:
мова: українська
переклад: багатоголосий закадровий
кодек: 2.0
бітрейт: 192 Кбіт/с

Аудіо # 2:
мова: українська
переклад: багатоголосий закадровий
кодек: 2.0
бітрейт: 192 Кбіт/с

Аудіо # 3:
мова: англійська
переклад: оригінал
кодек: 5.1
бітрейт: 448 Кбіт/с

Субтитри:
мова: англійська
тип: програмні (м'які)
формат: *.srt

Збережено оригінальні розділи, як на Blu-ray.
Info
Код:
Complete name               : The 10th Kingdom Ep.3 (2000) [2xUkr,Eng] 720p [Hurtom].
Format                      :
Format version              : Version 4 / Version 2
File size                   : 4.21 GiB
Duration                    : 1 h 25 min
Overall bit rate            : 7 051 kb/s
Movie name                  : Десяте королівство (Серія 3) / The 10th Kingdom (Ep.3) (2000) [2xUkr,Eng] 720p [Hurtom-igor911]
Encoded date                : UTC 2016-07-13 14:51:22
Writing application         : v9.2.0 ('Photograph') 64bit
Writing library             : libebml v1.3.3 + v1.4.4
Cover                       : Yes
Attachments                 : cover.jpg

Video
ID                          : 1
Format                      : AVC
Format/Info                 : Advanced Video Codec
Format profile              : [email protected]
Format settings, CABAC      : Yes
Format settings, ReFrames   : 9 frames
Codec ID                    : V_MPEG4/ISO/AVC
Duration                    : 1 h 25 min
Bit rate                    : 6 216 kb/s
Width                       : 1 280 pixels
Height                      : 720 pixels
Display aspect ratio        : 16:9
Frame rate mode             : Constant
Frame rate                  : 25.000 FPS
Color space                 : YUV
Chroma subsampling          : 4:2:0
Bit depth                   : 8 bits
Scan type                   : Progressive
Bits/(Pixel*Frame)          : 0.270
Stream size                 : 3.71 GiB (88%)
Title                       : Десяте королівство (Серія 3) / The 10th Kingdom Ep.03 (2000) [HDClub-Pro_Rock]
Writing library             : core 148 r2638kMod 7599210
Encoding settings           : cabac=1 / ref=9 / deblock=1:-3:-3 / analyse=0x3:0x113 / me=umh / subme=11 / psy=1 / fade_compensate=0.00 / psy_rd=1.00:0.00 / mixed_ref=1 / me_range=32 / chroma_me=1 / trellis=2 / 8x8dct=1 / cqm=0 / deadzone=21,11 / fast_pskip=0 / chroma_qp_offset=-3 / threads=12 / lookahead_threads=3 / sliced_threads=0 / nr=0 / decimate=1 / interlaced=0 / bluray_compat=0 / constrained_intra=0 / fgo=0 / bframes=12 / b_pyramid=2 / b_adapt=2 / b_bias=0 / direct=3 / weightb=1 / open_gop=0 / weightp=2 / keyint=230 / keyint_min=23 / scenecut=40 / intra_refresh=0 / rc_lookahead=40 / rc=crf / mbtree=0 / crf=18.0000 / qcomp=0.65 / qpmin=0 / qpmax=69 / qpstep=4 / vbv_maxrate=50000 / vbv_bufsize=62500 / crf_max=0.0 / nal_hrd=none / filler=0 / ip_ratio=1.40 / pb_ratio=1.30 / aq=3:0.85
Language                    : English
Default                     : Yes
Forced                      : No

Audio #1
ID                          : 2
Format                      : AC-3
Format/Info                 : Audio Coding 3
Mode extension              : CM (complete main)
Format settings, Endianness : Big
Codec ID                    : A_AC3
Duration                    : 1 h 25 min
Bit rate mode               : Constant
Bit rate                    : 192 kb/s
Channel(s)                  : 2 channels
Channel positions           : Front: L R
Sampling rate               : 48.0 kHz
Frame rate                  : 31.250 FPS (1536 spf)
Compression mode            : Lossy
Stream size                 : 117 MiB (3%)
Title                       : MVO [NLO] 2.0 192 kbps [Hurtom-voin747,ratbol,bambulla]
Language                    : Ukrainian
Default                     : Yes
Forced                      : No

Audio #2
ID                          : 3
Format                      : AC-3
Format/Info                 : Audio Coding 3
Mode extension              : CM (complete main)
Format settings, Endianness : Big
Codec ID                    : A_AC3
Duration                    : 1 h 25 min
Bit rate mode               : Constant
Bit rate                    : 192 kb/s
Channel(s)                  : 2 channels
Channel positions           : Front: L R
Sampling rate               : 48.0 kHz
Frame rate                  : 31.250 FPS (1536 spf)
Compression mode            : Lossy
Stream size                 : 117 MiB (3%)
Title                       : MVO [TV+,ICTV] 2.0 192 kbps [Hurtom-Konfucius]
Language                    : Ukrainian
Default                     : No
Forced                      : No

Audio #3
ID                          : 4
Format                      : AC-3
Format/Info                 : Audio Coding 3
Mode extension              : CM (complete main)
Format settings, Endianness : Big
Codec ID                    : A_AC3
Duration                    : 1 h 25 min
Bit rate mode               : Constant
Bit rate                    : 448 kb/s
Channel(s)                  : 6 channels
Channel positions           : Front: L C R, Side: L R, LFE
Sampling rate               : 48.0 kHz
Frame rate                  : 31.250 FPS (1536 spf)
Compression mode            : Lossy
Stream size                 : 274 MiB (6%)
Title                       : Original, 5.1 448 kbps
Language                    : English
Default                     : No
Forced                      : No

Text #1
ID                          : 5
Format                      : UTF-8
Codec ID                    : S_TEXT/UTF8
Codec ID/Info               : UTF-8 Plain Text
Duration                    : 1 h 22 min
Bit rate                    : 70 b/s
Count of elements           : 1606
Stream size                 : 42.9 KiB (0%)
Title                       : Eng full
Language                    : English
Default                     : No
Forced                      : No

Text #2
ID                          : 6
Format                      : UTF-8
Codec ID                    : S_TEXT/UTF8
Codec ID/Info               : UTF-8 Plain Text
Duration                    : 1 h 25 min
Bit rate                    : 77 b/s
Count of elements           : 1793
Stream size                 : 48.3 KiB (0%)
Title                       : Eng SDH
Language                    : English
Default                     : No
Forced                      : No

Menu
00:00:00.000                : en:
00:01:19.960                : en:
00:18:43.640                : en:
00:43:29.679                : en:
00:55:47.479                : en:
01:10:30.279                : en:
01:24:19.559                : en:
Ще скріншоти


Джерело: &
Подяки за українські доріжки: 1) ratbol, bambulla - запис з ТБ, voin747 - зведення; 2) Konfucius





Особиста оцінка: 10 - рекомендую всім дітям та їх батькам!


ЗАЛИШАЙТЕСЬ ЯКОМОГА ДОВШЕ НА РОЗДАЧІ!
СКАЧАВ САМ - ДАЙ СКАЧАТИ ІНШИМ


Срібний реліз (на рейтинг впливає 50% завантаженого)
 Трекер:    Зареєстрований   

Завантажити / скачати серіал українською



відео для новачків



 Зареєстрований:   2016-07-17 09:43
 Розмір:   20.53 GB 
 Оцінка серіалу:   7.7/10 (Голосів: 41)
   
Ваш часовий пояс: GMT + 2 Години

Нова тема   Відповісти