Трансформери. Роботи під прикриттям / Transformers: Robots in Disguise (Сезон 2) (2015) 1080p | Ukr/Eng

Нові коментарі

Нова тема   Відповісти
Автор Повідомлення
sergiyko.5 
Забанено
Забанено


З нами з: 25.02.16
Востаннє: 29.10.20
Повідомлень: 3648

2016-07-15 23:00  
Трансформери. Роботи під прикриттям / Transformers: Robots in Disguise (Сезон 2) (2015) 1080p | Ukr/Eng

Трансформери. Роботи під прикриттям / Transformers: Robots in Disguise (Сезон 2) (2015) 1080p | Ukr/Eng

Жанр: дитячий, пригодницький
Країна: США

Режисер: Адам Бечен

Сюжет:
Бамблбі викликають, щоб врятувати Землю від нової групи десептиконів, що втекли із корабля-в'язниці, який звалився на планету. Автобот збирає групу непідготовлених воїнів, до якої приєдналися бунтівник, кадет елітної гвардії, чванливий дінобот і гіперактивний мінікон. Разом загін намагається зловити нових ворогів. Кожен бот цілком може бути героєм сам по собі, але не вміє працювати в команді, тому Бамблбі доводиться виступати не тільки в ролі лідера загону, а й тренера. Девіз рятівників: "Одна команда – одна місія".




Тривалість: 1 серія: 21:40 (цілком серій: 13)

Якість:
Відео: розмір кадру: 1920 х 1080 бітрейт: 5200 кб/с
Аудіо # 1: мова: українськаь переклад: професійний дубльований кодек: 2.0 бітрейт: 192 кб/с
Аудіо # 2: мова: англійська переклад: оригінал кодек: 5.1 бітрейт: 384 кб/с
Аудіо # 3: мова: англійська переклад: оригінал кодек: 2.0 бітрейт: 157 кб/с
Субтитри: мова: англійська

Джерело озвучення:
Перелік серій
E01 Overloaded. Part 1
E02 Overloaded. Part 2
E03 Metal Meltdown
E04 Suspended
E05 Cover Me
E06 Brainpower
E07 Misdirection
E08 Bumblebees Night Off
E09 Impounded
E10 Portals
E11 Graduation Exercises
E12 Decepticon Island. Part 1
E13 Decepticon Island. Part 2
Info
General
Unique ID : 180498864502730253801845242570886403207 (0x87CAD11A49AE5AB792A908A7A0BCD487)
Complete name : E:\Torrents\Mult_2\Transformers. Robots in Disguise Season 2 1080p\Transformers.Robots.in.Disguise.2015.S02E03.Metal.Meltdown.1080p..Ukr.Eng.
Format :
Format version : Version 4 / Version 2
File size : 930 MiB
Duration : 21mn 40s
Overall bit rate : 5 999 Kbps
Encoded date : UTC 2016-06-11 07:51:53
Writing application : v9.0.1 ('Obstacles') 64bit
Writing library : libebml v1.3.3 + v1.4.4

Video
ID : 1
Format : AVC
Format/Info : Advanced Video Codec
Format profile : [email protected]
Format settings, CABAC : Yes
Format settings, ReFrames : 4 frames
Codec ID : V_MPEG4/ISO/AVC
Duration : 21mn 40s
Bit rate : 5 263 Kbps
Width : 1 920 pixels
Height : 1 080 pixels
Display aspect ratio : 16:9
Frame rate mode : Constant
Frame rate : 23.976 (24000/1001) fps
Color space : YUV
Chroma subsampling : 4:2:0
Bit depth : 8 bits
Scan type : Progressive
Bits/(Pixel*Frame) : 0.106
Stream size : 816 MiB (88%)
Title : Transformers Robots in Disguise 2015 S02E03
Language : English
Default : Yes
Forced : No
Color range : Limited
Color primaries : BT.709
Transfer characteristics : BT.709
Matrix coefficients : BT.709

Audio #1
ID : 2
Format : AC-3
Format/Info : Audio Coding 3
Mode extension : CM (complete main)
Format settings, Endianness : Big
Codec ID : A_AC3
Duration : 21mn 40s
Bit rate mode : Constant
Bit rate : 192 Kbps
Channel(s) : 2 channels
Channel positions : Front: L R
Sampling rate : 48.0 KHz
Frame rate : 31.250 fps (1536 spf)
Compression mode : Lossy
Stream size : 29.8 MiB (3%)
Title : DUB 2.0ch 192kbps | Плюс Плюс |
Language : Ukrainian
Default : Yes
Forced : Yes

Audio #2
ID : 3
Format : AC-3
Format/Info : Audio Coding 3
Mode extension : CM (complete main)
Format settings, Endianness : Big
Codec ID : A_AC3
Duration : 21mn 40s
Bit rate mode : Constant
Bit rate : 384 Kbps
Channel(s) : 6 channels
Channel positions : Front: L C R, Side: L R, LFE
Sampling rate : 48.0 KHz
Frame rate : 31.250 fps (1536 spf)
Compression mode : Lossy
Stream size : 59.5 MiB (6%)
Title : DD5.1
Language : English
Default : No
Forced : No

Audio #3
ID : 4
Format :
Format/Info : Advanced Audio Codec
Format profile : LC
Codec ID : A_AAC
Duration : 21mn 40s
Bit rate : 157 Kbps
Channel(s) : 2 channels
Channel positions : Front: L R
Sampling rate : 48.0 KHz
Frame rate : 46.875 fps (1024 spf)
Compression mode : Lossy
Stream size : 24.3 MiB (3%)
Title : AAC2.0
Language : English
Default : No
Forced : No

Text
ID : 5
Format : UTF-8
Codec ID : S_TEXT/UTF8
Codec ID/Info : UTF-8 Plain Text
Duration : 21mn 14s
Bit rate : 71 bps
Count of elements : 371
Stream size : 11.1 KiB (0%)
Title : CC
Language : English
Default : No
Forced : No
Скріншоти:


Автор записів та ріпів: sergiyko



Бронзовий реліз (на рейтинг впливає 75% завантаженого)
 Трекер:    Зареєстрований   

Завантажити / скачати мультфільм українською



відео для новачків



 Зареєстрований:   2016-11-23 19:50
 Розмір:   11.56 GB 
 Оцінка мультсеріалу:   10/10 (Голосів: 15)
   
sergiyko.5 
Забанено
Забанено


З нами з: 25.02.16
Востаннє: 29.10.20
Повідомлень: 3648

2016-07-22 21:18  
Шукаю запис озвучки до першої серії.
xslim 
Відео Гуртом - фільмокрай
Відео Гуртом - фільмокрай


З нами з: 05.03.09
Востаннє: 15.04.21
Повідомлень: 1416

2016-07-23 08:37  
Шукай ділі а в мене ця серія є гігігігі.
sergiyko.5 
Забанено
Забанено


З нами з: 25.02.16
Востаннє: 29.10.20
Повідомлень: 3648

2016-11-23 19:50  
Додав всі серії до повного сезону. Приємного перегляду.
Ваш часовий пояс: GMT + 2 Години

Нова тема   Відповісти