Пригоди кота у чоботях / The Adventures of Puss in Boots (Сезон 1-2) (2015) 720p

Нові коментарі

Нова тема   Відповісти
Автор Повідомлення
sergiyko.5 
Забанено
Забанено


З нами з: 25.02.16
Востаннє: 29.10.20
Повідомлень: 3648

2016-07-15 16:30  
Пригоди кота у чоботях / The Adventures of Puss in Boots (Сезон 1-2) (2015) 720p

Пригоди кота у чоботях / The Adventures of Puss in Boots (Сезон 1-2) (2015) 720p

Жанр: пригоди, комедія, сімейний
Країна: США

Режисер: Рой Бурдін, Девід Маккі Фассетт, Дуглас Лавлейс

Сюжет:
Знаменитий рудий Кіт у чоботях з Шрека, що завоював мільйони сердець своїм жалібно-милим поглядом, повертається на екран. Тепер всі дії стрічки відбуватимуться в таємничому містечку під назвою Сан Лоренцо, мешканців якого легендарний пухнастий персонаж змушений охороняти і обороняти від злих негідників.




Тривалість: 1 серія: 23:21 (цілком серій: 26)

Якість:
Відео: кодек: розмір кадру: 1280 х 720 бітрейт: 2888 кб/с
Аудіо: мова: українська переклад: багатоголосий закадровий кодек: 2.0 бітрейт: 128 кб/с
Джерело озвучення:
Перелік серій

Сезон 1
01. Таємне місто
02. Сфінкс
03. Брати
04. Герцогиня
05. Пригоди
06. Фонтани
07. Хоробрість
08. Голем
09. Чоботи
10. Меч
11. Миша
12. Гоблін
13. Зірка
14. Свині
15. Вдача

Сезон 2
01. Дракон
02. Кроти
03. Русалка
04. Бджоли
05. Загін
06. Чари
07. Ятаган
08. Історії
09. Сфери
10. Так
11. Ні
Info
General
Unique ID : 198853988308573740311303600694636788118 (0x9599E2939522A15193F16B5A835F3996)
Complete name : E:\Torrents\Mult\The Adventures of Puss in Boots 720p Ukr\Season 01\The.Adventures.of.Puss.in.Boots.s01e01.WEB.720p.
Format :
Format version : Version 4 / Version 2
File size : 503 MiB
Duration : 23mn 21s
Overall bit rate mode : Variable
Overall bit rate : 3 015 Kbps
Encoded date : UTC 2016-06-05 18:27:05
Writing application : v9.0.1 ('Obstacles') 64bit
Writing library : libebml v1.3.3 + v1.4.4

Video
ID : 1
Format : AVC
Format/Info : Advanced Video Codec
Format profile : [email protected]
Format settings, CABAC : No
Format settings, ReFrames : 2 frames
Format settings, GOP : M=2, N=72
Codec ID : V_MPEG4/ISO/AVC
Duration : 23mn 20s
Bit rate mode : Variable
Bit rate : 2 884 Kbps
Maximum bit rate : 14.0 Mbps
Width : 1 280 pixels
Height : 720 pixels
Display aspect ratio : 16:9
Frame rate mode : Constant
Frame rate : 23.976 (23976/1000) fps
Color space : YUV
Chroma subsampling : 4:2:0
Bit depth : 8 bits
Scan type : Progressive
Bits/(Pixel*Frame) : 0.131
Stream size : 482 MiB (96%)
Title : S01E01
Language : English
Default : Yes
Forced : No
Color range : Limited
Color primaries : BT.709
Transfer characteristics : BT.709
Matrix coefficients : BT.709

Audio
ID : 2
Format :
Format/Info : Advanced Audio Codec
Format profile : LC
Codec ID : A_AAC
Duration : 23mn 21s
Bit rate : 128 Kbps
Channel(s) : 2 channels
Channel positions : Front: L R
Sampling rate : 48.0 KHz
Frame rate : 46.875 fps (1024 spf)
Compression mode : Lossy
Stream size : 21.4 MiB (4%)
Title : MOV 2.0ch 128kbps | QTV |
Language : Ukrainian
Default : Yes
Forced : No
Скріншоти:


Реліз: sergiyko


Бронзовий реліз (на рейтинг впливає 75% завантаженого)
 Трекер:    Зареєстрований   

Завантажити / скачати мультфільм українською



відео для новачків



 Зареєстрований:   2016-07-15 16:30
 Розмір:   9.64 GB 
 Оцінка мультсеріалу:   8.6/10 (Голосів: 11)
   
Askold25 
Модератор літератури


З нами з: 18.06.09
Востаннє: 03.04.21
Повідомлень: 703

2016-07-16 09:08  
У порівнянні з фільмом про кота у чоботях та Шреком, серіал занадто нудний та передбачуваний. Хоча може для зовсім маленьких дітей піде.
stwnik 
Свій


З нами з: 12.08.09
Востаннє: 21.04.21
Повідомлень: 133

2016-08-11 21:45  
Askold25
Мабуть з ним сталося те саме, що й з Пандою Кунг Фу.

itoo 
Забанено
Забанено


З нами з: 18.12.19
Востаннє: 18.12.19
Повідомлень: 2

2019-12-18 16:30  
Прикро що не показали весь мультсеріал та один спеціальний випуск пригоди кота у чоботях на QTV


Повторний профіль https://toloka.to/u1028070, видано igor911
Ваш часовий пояс: GMT + 2 Години

Нова тема   Відповісти