Димові сигнали / Smoke Signals (1998) -AVC Eng | sub Ukr

Нові коментарі

Нова тема   Відповісти
Останній раз роздавалося marisolovej (2020-11-16)
Автор Повідомлення
antusyrzhuk 
Свій


З нами з: 09.06.09
Востаннє: 21.04.20
Повідомлень: 145

2016-07-08 17:06  
Димові сигнали / Smoke Signals (1998) -AVC Eng | sub Ukr

Димові сигнали / Smoke Signals (1998) -AVC Eng | sub Ukr


Жанр: комедія, драма
Країна: Канада, США



Кінокомпанія: ShadowCatcher Entertainment, Welb Film Pursuits Ltd.
Режисер: Кріс Айр (Chris Eyre)
Актори: Адам Біч (Adam Beach), Івен Адамс (Evan Adams), Айрін Бедард (Irene Bedard), Ґері Фармер (Gary Farmer) та ін.

Сюжет:
Перший фільм, знятий американськими індіанцями про американських індіанців. Томас – хлопчина, що носить величезні окуляри і розповідає історії, які ніхто не хоче слухати, втратив батьків під час пожежі в 1976. Його врятував Арнольд, що невдовзі покинув свою сім’ю і виїхав з резервації. Через десять років Арнольд помирає, а його син Віктор разом із Томасом вирушають забрати останки батька.


Тривалість: 01:29:52
Якість:
Відео:
кодек:
розмір кадру: 800 х 436
бітрейт: 1600 кб/с

Аудіо:
мова: англійська
переклад: оригінал
кодек: 2.0
бітрейт: 158 кб/с

Субтитри # 1-2:
мова: українська (звичайні і для людей з вадами слуху)
тип: програмні (м'які)
формат: *.srt
переклад: власний
Info
Код:
General
Complete name               : Smoke Signals (1998).mp4
Format                      : MPEG-4
Format profile              : Base Media
Codec ID                    : isom (isom/avc1)
File size                   : 1.10 GiB
Duration                    : 1 h 29 min
Overall bit rate mode       : Variable
Overall bit rate            : 1 746 kb/s
Movie name                  : Smoke Signals*1998 /antusyrzhuk
Genre                       : Comedy
Recorded date               : 1998
Encoded date                : UTC 2014-11-18 18:19:44
Tagged date                 : UTC 2014-11-18 18:19:44
Comment                     : http://cinemasterpiece.wordpress.com/
Xtra                        : WM/Director

Video
ID                          : 1
Format                      : AVC
Format/Info                 : Advanced Video Codec
Format profile              : [email protected]
Format settings             : CABAC / 5 Ref Frames
Format settings, CABAC      : Yes
Format settings, Reference  : 5 frames
Codec ID                    : avc1
Codec ID/Info               : Advanced Video Coding
Duration                    : 1 h 29 min
Bit rate                    : 1 600 kb/s
Maximum bit rate            : 6 426 kb/s
Width                       : 800 pixels
Height                      : 436 pixels
Display aspect ratio        : 1.85:1
Frame rate mode             : Constant
Frame rate                  : 23.976 (24000/1001) FPS
Color space                 : YUV
Chroma subsampling          : 4:2:0
Bit depth                   : 8 bits
Scan type                   : Progressive
Bits/(Pixel*Frame)          : 0.191
Stream size                 : 1 018 MiB (91%)
Writing library             : core 142 r2431 ac76440
Encoding settings           : cabac=1 / ref=5 / deblock=1:0:0 / analyse=0x3:0x113 / me=umh / subme=8 / psy=1 / psy_rd=1.00:0.00 / mixed_ref=1 / me_range=16 / chroma_me=1 / trellis=1 / 8x8dct=1 / cqm=0 / deadzone=21,11 / fast_pskip=1 / chroma_qp_offset=-2 / threads=1 / lookahead_threads=1 / sliced_threads=0 / nr=0 / decimate=1 / interlaced=0 / bluray_compat=0 / constrained_intra=0 / bframes=3 / b_pyramid=2 / b_adapt=2 / b_bias=0 / direct=3 / weightb=1 / open_gop=0 / weightp=2 / keyint=240 / keyint_min=23 / scenecut=40 / intra_refresh=0 / rc_lookahead=50 / rc=2pass / mbtree=1 / bitrate=1600 / ratetol=1.0 / qcomp=0.60 / qpmin=0 / qpmax=69 / qpstep=4 / cplxblur=20.0 / qblur=0.5 / ip_ratio=1.40 / aq=1:1.00
Encoded date                : UTC 2014-11-18 18:19:44
Tagged date                 : UTC 2014-11-18 18:28:41
Codec configuration box     : avcC

Audio
ID                          : 2
Format                      : LC
Format/Info                 : Advanced Audio Codec Low Complexity
Codec ID                    : mp4a-40-2
Duration                    : 1 h 29 min
Bit rate mode               : Variable
Bit rate                    : 158 kb/s
Maximum bit rate            : 175 kb/s
Channel(s)                  : 2 channels
Channel layout              : L R
Sampling rate               : 48.0 kHz
Frame rate                  : 46.875 FPS (1024 SPF)
Compression mode            : Lossy
Stream size                 : 101 MiB (9%)
Language                    : English
Encoded date                : UTC 2014-11-14 06:08:32
Tagged date                 : UTC 2014-11-18 18:28:41

Text #1
ID                          : 3
Format                      : Timed Text
Codec ID                    : tx3g
Duration                    : 1 h 23 min
Bit rate mode               : Variable
Bit rate                    : 108 b/s
Stream size                 : 66.0 KiB (0%)
Title                       : SDH
Language                    : Ukrainian
Forced                      : No
Encoded date                : UTC 2014-11-18 18:28:41
Tagged date                 : UTC 2014-11-18 18:28:41

Text #2
ID                          : 4
Format                      : Timed Text
Codec ID                    : tx3g
Duration                    : 1 h 23 min
Bit rate mode               : Variable
Bit rate                    : 103 b/s
Stream size                 : 62.8 KiB (0%)
Language                    : Ukrainian
Forced                      : No
Encoded date                : UTC 2014-11-18 18:28:41
Tagged date                 : UTC 2014-11-18 18:28:41
Скріншоти


Джерело:
Особиста оцінка: 10 - без зайвих вагань рекомендую всім!


Золотий реліз (завантажене не впливає на рейтинг)
 Трекер:    Зареєстрований   

Завантажити / скачати фільм українською



відео для новачків



 Зареєстрований:   2016-07-08 17:06
 Розмір:   1.1 GB 
 Оцінка фільму:   -/10 (Голосів: 0)
   
Володимир65 
Частий відвідувач


З нами з: 28.12.12
Востаннє: 18.11.20
Повідомлень: 41

2019-11-18 17:29  
хороший фільм...
Ваш часовий пояс: GMT + 2 Години

Нова тема   Відповісти