Наші пані у Варшаві (Сезон 1) / Dziewczyny ze Lwowa (Season 1) (2015) 720p Ukr/Pol

Нові коментарі

Нова тема   Відповісти
Останній раз роздавалося d_besh (2020-12-03)
Автор Повідомлення
Anonymous 







2016-07-03 16:35  
Наші пані у Варшаві (Сезон 1) / Dziewczyny ze Lwowa (Season 1) (2015) 720p Ukr/Pol

Наші пані у Варшаві (Сезон 1) / Dziewczyny ze Lwowa (Season 1) (2015) 720p Ukr/Pol


Жанр: драма, комедія
Країна: Польща



Кінокомпанія: Studio A. / TVP
Режисер: Войцєх Адамчик (Wojciech Adamczyk)
Актори: Ганна Ґарайська (Anna Gorajska), Маґдалена Врубель (Magdalena Wróbel), Катажина Ухерська (Katarzyna Ucherska), Ганна-Марія Бучек (Anna Maria Buczek)
Ролі озвучують: Світлана - Ольга Сумська, Поліна - Ольга Фреймут, Уляна - Лілія Ребрик, Ольга - Людмила Барбір

Сюжет:
Серіал описує історію чотирьох українських дівчат — Уляни, Поліни, Олі і Світлани, які після втрати роботи у Львові виїздять до Варшави, щоб шукати нової роботи, кращого життя і нових перспектив для себе і близьких, яких залишили в Україні. Дівчата винаймають спільну кімнату в зруйнованій будівлі з паном Генриком, привабливим старшим чоловіком, який не в ладах із законом.


Тривалість: 1 серія: 44:30 (цілком серій: 13)
Перелік серій
01. Раз козі смерть / Raz kozie śmierć
02. Буває, що й ведмідь літає / Wypadki chodzą po ludziach
03. Доноси і контроль / Donosy i kontrole
04. Мистецтво чищення кришталю / Sztuka czyszczenia kryształów
05. Дива трапляються / Cuda się zdarzają
06. Карткові хатинки / Domki z kart
07. Гість у дім / Gość w dom
08. Сила мистецтва / Potęga sztuki
09. Музичний тероризм / Terroryzm muzyczny
10. Упертий, як юрист / Uparty jak prawnik
11. Міжнародний бізнес / Międzynarodowy biznes
12. Делікатне питання деменції / Delikatna kwestia demencji
13. Крапля переповнює чашу / Kropla przepełnia czarę
Якість: 720p
Відео:
кодек:
розмір кадру: 1280 х 720
бітрейт: 5420 кб/с

Аудіо # 1:
мова: українська
переклад: професійний дубльований
кодек: 2.0
бітрейт: 192 кб/с

Аудіо # 2:
мова: польська
переклад: оригінал
кодек: MP2
бітрейт: 128 кб/с

Джерело озвучення:
Info
General
Unique ID : 230748025745760467995237427954447125254 (0xAD9874077BF3F1C982A157DD8C1D8B06)
Complete name : E:\_inbox\torrents\Support\Наші пані у Варшаві (Сезон 1) [, 720p, Ukr, Pol]\S01E01. Раз козі смерть.
Format :
Format version : Version 4 / Version 2
File size : 1.80 GiB
Duration : 44mn 30s
Overall bit rate : 5 794 Kbps
Encoded date : UTC 2016-07-03 09:06:15
Writing application : v9.1.0 ('Little Earthquakes') 64bit
Writing library : libebml v1.3.3 + v1.4.4

Video
ID : 1
Format : AVC
Format/Info : Advanced Video Codec
Format profile : [email protected]
Format settings, CABAC : Yes
Format settings, ReFrames : 4 frames
Codec ID : V_MPEG4/ISO/AVC
Duration : 44mn 30s
Bit rate : 5 420 Kbps
Width : 1 280 pixels
Height : 720 pixels
Display aspect ratio : 16:9
Frame rate mode : Constant
Frame rate : 25.000 fps
Color space : YUV
Chroma subsampling : 4:2:0
Bit depth : 8 bits
Scan type : Progressive
Bits/(Pixel*Frame) : 0.235
Stream size : 1.70 GiB (94%)
Writing library : core 129 r2245 bc13772
Encoding settings : cabac=1 / ref=3 / deblock=1:0:0 / analyse=0x3:0x113 / me=hex / subme=7 / psy=1 / psy_rd=1.00:0.00 / mixed_ref=1 / me_range=16 / chroma_me=1 / trellis=1 / 8x8dct=1 / cqm=0 / deadzone=21,11 / fast_pskip=1 / chroma_qp_offset=-2 / threads=36 / lookahead_threads=6 / sliced_threads=0 / nr=0 / decimate=1 / interlaced=0 / bluray_compat=0 / constrained_intra=0 / bframes=3 / b_pyramid=2 / b_adapt=1 / b_bias=0 / direct=1 / weightb=1 / open_gop=0 / weightp=2 / keyint=100 / keyint_min=51 / scenecut=0 / intra_refresh=0 / rc_lookahead=40 / rc=abr / mbtree=1 / bitrate=5420 / ratetol=1.0 / qcomp=0.60 / qpmin=0 / qpmax=69 / qpstep=4 / ip_ratio=1.40 / aq=1:1.00
Default : Yes
Forced : No
Color range : Full

Audio #1
ID : 2
Format : AC-3
Format/Info : Audio Coding 3
Mode extension : CM (complete main)
Format settings, Endianness : Big
Codec ID : A_AC3
Duration : 44mn 30s
Bit rate mode : Constant
Bit rate : 192 Kbps
Channel(s) : 2 channels
Channel positions : Front: L R
Sampling rate : 48.0 KHz
Frame rate : 31.250 fps (1536 spf)
Compression mode : Lossy
Stream size : 61.1 MiB (3%)
Language : Ukrainian
Default : Yes
Forced : No

Audio #2
ID : 3
Format : MPEG Audio
Format version : Version 1
Format profile : Layer 2
Codec ID : A_MPEG/L2
Codec ID/Hint : MP2
Duration : 44mn 30s
Bit rate mode : Constant
Bit rate : 128 Kbps
Channel(s) : 2 channels
Sampling rate : 44.1 KHz
Frame rate : 38.281 fps (1152 spf)
Compression mode : Lossy
Stream size : 40.7 MiB (2%)
Language : Polish
Default : No
Forced : No
Скріншоти

Дякую krigg070 за наданий запис 6-ї серії

Джерело: &
Особиста оцінка: 0 - ще не дивився


Бронзовий реліз (на рейтинг впливає 75% завантаженого)
 Трекер:    Зареєстрований   

Завантажити / скачати серіал українською



відео для новачків



 Зареєстрований:   2016-07-04 20:33
 Розмір:   23.21 GB 
 Оцінка серіалу:   8.4/10 (Голосів: 37)
   
Anonymous 







2016-07-04 11:06  
Торрент оновлено: замінив звук в шостій серії. Решта серій без змін.
сhigivarbi4 
Новенький


З нами з: 02.10.14
Востаннє: 08.06.19
Повідомлень: 2

2016-08-12 17:42  
а є з польскими субтитрами?
BymerOK 
Новенький


З нами з: 19.01.15
Востаннє: 26.02.18
Повідомлень: 1

2016-12-04 16:13  
Нема швидкості!!!
kiss333a 
Частий відвідувач


З нами з: 08.04.10
Востаннє: 02.12.20
Повідомлень: 27

2018-02-21 10:44  
роздайте,будь ласка!
strusphoto 
Новенький


З нами з: 04.09.15
Востаннє: 17.11.20
Повідомлень: 1

2018-04-18 21:23  
Я ще хочу подивитися. Де ще серії? де другий сезон?
MasterYura 
Відео Гуртом - фільмокрай
Відео Гуртом - фільмокрай


З нами з: 21.11.09
Востаннє: 02.12.20
Повідомлень: 1106

2018-08-05 13:10  
strusphoto написано:
Я ще хочу подивитися. Де ще серії? де другий сезон?

https://toloka.to/t93990

Ваш часовий пояс: GMT + 2 Години

Нова тема   Відповісти