Панда Кунг-Фу 3 / Kung Fu Panda 3 (2016) 1080p 3D [HalfOverUnder] Ukr/Eng | Sub Ukr/Eng

Нові коментарі

Нова тема   Відповісти
Автор Повідомлення
-VipeR- 
VIP


З нами з: 17.07.08
Востаннє: 16.08.17
Повідомлень: 289

2016-06-30 15:08  
Панда Кунг-Фу 3 / Kung Fu Panda 3 (2016) 1080p 3D [HalfOverUnder] Ukr/Eng | Sub Ukr/Eng

Панда Кунг-Фу 3 / Kung Fu Panda 3 (2016) 1080p 3D [HalfOverUnder] Ukr/Eng | Sub Ukr/Eng


Жанр: анімація, комедія, пригоди, екшн
Країна: США



Кінокомпанія: DreamWorks Animation
Режисер: Дженніфер Ю-Нельсон, Алессандро Карлоні
Актори: Джек Блек, Анджеліна Джолі, Брайан Кренстон, Сет Роґен, Люсі Л'ю, Дастін Гоффман, Девід Кросс, Кейт Гадсон, Джонатан Кімбол Сіммонс, Джекі Чан

Сюжет:
В 2016 році на екрани повертаються герої одного з найуспішніших світових анімаційних проектів – в прокат виходить найкрутіша пригодницька комедія "Кунг-фу Панда 3".

Батько Пo, якого давно вважали зниклим, раптово повертається і разом із сином рушає до таємного пандячого раю, де на них чекає зустріч з багатьма новими кумедними героями. Втім, коли злодій з надприродними здібностями на ім’я Kai починає перемагати майстрів кунг-фу по всьому Китаю, Пo змушений вчинити неможливе – організувати вишкіл цілого селища, населеного його веселими вайлуватими братами, аби перетворити їх на ідеальний гурт "Кунг-Фу Панди"!


Тривалість: 01:34:54
Якість: 1080p 3D HalfOverUnder (ash61)
Відео:
кодек:
розмір кадру: 1920 х 1080
бітрейт: 13 мбіт/с

Аудіо # 1:
мова: українська
переклад: професійний дубльований
кодек: 5.1
бітрейт: 448 кб/с

Аудіо # 2:
мова: англійська
переклад: оригінал
кодек: 5.1
бітрейт: 640 кб/с

Субтитри:
мова: українська
тип: програмні (м'які)
формат: *.srt

Субтитри:
мова: англійська
тип: програмні (м'які)
формат: *.srt
Info
Код:
General
Unique ID                      : 248693954816967944939028263515295248782 (0xBB18B6A51E568842968054638612F18E)
Complete name                  : D:\3D\Мультики\Kung Fu Panda 3(2016) 3D [HalfOverUnder] [ukr eng] sub [ukr eng] [Hurtom] (ash61).
Format                         :
Format version                 : Version 4 / Version 2
File size                      : 9.34 GiB
Duration                       : 1h 34mn
Overall bit rate               : 14.1 Mbps
Movie name                     : Кунг-фу Панда 3 у 3D
Encoded date                   : UTC 2016-07-09 07:29:38
Writing application            : mkvmerge v8.8.0 ('Wind at my back') 64bit
Writing library                : libebml v1.3.3 + libmatroska v1.4.4
Cover                          : Yes
Attachments                    : cover.jpg

Video
ID                             : 1
Format                         : AVC
Format/Info                    : Advanced Video Codec
Format profile                 : [email protected]
Format settings, CABAC         : Yes
Format settings, ReFrames      : 4 frames
Codec ID                       : V_MPEG4/ISO/AVC
Duration                       : 1h 34mn
Bit rate                       : 13.0 Mbps
Width                          : 1 920 pixels
Height                         : 1 080 pixels
Display aspect ratio           : 16:9
Frame rate mode                : Constant
Frame rate                     : 23.976 (24000/1001) fps
Color space                    : YUV
Chroma subsampling             : 4:2:0
Bit depth                      : 8 bits
Scan type                      : Progressive
Bits/(Pixel*Frame)             : 0.261
Stream size                    : 8.62 GiB (92%)
Title                          : by Ash61
Writing library                : core 146 r2538 121396c
Encoding settings              : cabac=1 / ref=4 / deblock=1:-3:-3 / analyse=0x3:0x113 / me=umh / subme=10 / psy=1 / psy_rd=1.00:0.00 / mixed_ref=1 / me_range=32 / chroma_me=1 / trellis=2 / 8x8dct=1 / cqm=0 / deadzone=21,11 / fast_pskip=1 / chroma_qp_offset=-2 / threads=12 / lookahead_threads=3 / sliced_threads=0 / nr=0 / decimate=1 / interlaced=0 / bluray_compat=0 / constrained_intra=0 / bframes=12 / b_pyramid=2 / b_adapt=2 / b_bias=0 / direct=3 / weightb=1 / open_gop=0 / weightp=2 / keyint=250 / keyint_min=23 / scenecut=40 / intra_refresh=0 / rc_lookahead=60 / rc=crf / mbtree=1 / crf=14.5 / qcomp=0.70 / qpmin=0 / qpmax=69 / qpstep=4 / vbv_maxrate=40000 / vbv_bufsize=30000 / crf_max=0.0 / nal_hrd=none / filler=0 / frame-packing=4 / ip_ratio=1.40 / aq=1:0.70
Language                       : English
Default                        : Yes
Forced                         : No

Audio #1
ID                             : 2
Format                         : AC-3
Format/Info                    : Audio Coding 3
Mode extension                 : CM (complete main)
Format settings, Endianness    : Big
Codec ID                       : A_AC3
Duration                       : 1h 34mn
Bit rate mode                  : Constant
Bit rate                       : 448 Kbps
Channel(s)                     : 6 channels
Channel positions              : Front: L C R, Side: L R, LFE
Sampling rate                  : 48.0 KHz
Frame rate                     : 31.250 fps (1536 spf)
Compression mode               : Lossy
Stream size                    : 304 MiB (3%)
Title                          : Дубляж - BD 3D Eur
Language                       : Ukrainian
Default                        : Yes
Forced                         : Yes

Audio #2
ID                             : 3
Format                         : AC-3
Format/Info                    : Audio Coding 3
Mode extension                 : CM (complete main)
Format settings, Endianness    : Big
Codec ID                       : A_AC3
Duration                       : 1h 34mn
Bit rate mode                  : Constant
Bit rate                       : 640 Kbps
Channel(s)                     : 6 channels
Channel positions              : Front: L C R, Side: L R, LFE
Sampling rate                  : 48.0 KHz
Frame rate                     : 31.250 fps (1536 spf)
Compression mode               : Lossy
Stream size                    : 434 MiB (5%)
Title                          : Original - BD 3D
Language                       : English
Default                        : No
Forced                         : No

Text #1
ID                             : 4
Format                         : UTF-8
Codec ID                       : S_TEXT/UTF8
Codec ID/Info                  : UTF-8 Plain Text
Duration                       : 1h 34mn
Bit rate                       : 157 bps
Count of elements              : 1266
Stream size                    : 109 KiB (0%)
Title                          : Полные (iTunes)
Language                       : Ukrainian
Default                        : No
Forced                         : No

Text #2
ID                             : 5
Format                         : UTF-8
Codec ID                       : S_TEXT/UTF8
Codec ID/Info                  : UTF-8 Plain Text
Duration                       : 1h 21mn
Bit rate                       : 55 bps
Count of elements              : 1263
Stream size                    : 33.5 KiB (0%)
Title                          : Full (iTunes)
Language                       : English
Скріншоти
Джерело:


 Трекер:    Зареєстрований   

Завантажити / скачати мультфільм українською



відео для новачків



 Зареєстрований:   2016-07-09 11:11
 Розмір:   9.34 GB 
 Оцінка мультфільму:   9/10 (Голосів: 9)
   
Інші релізи
-VipeR- 
VIP


З нами з: 17.07.08
Востаннє: 16.08.17
Повідомлень: 289

2016-07-08 15:26  
Торрент оновлено!

Українську доріжку замінено на доріжку з BluRay 448 kb/c

-VipeR- 
VIP


З нами з: 17.07.08
Востаннє: 16.08.17
Повідомлень: 289

2016-07-09 11:13  
Оновлено відеоряд на HalfOverUnder від ash61

Ваш часовий пояс: GMT + 2 Години

Нова тема   Відповісти