Зоотрополіс / Zootopia (2016) 1080p 3D [HalfOverUnder] Ukr/Eng | Sub Ukr/Eng

Нові коментарі

Нова тема   Відповісти
Автор Повідомлення
-VipeR- 
VIP


З нами з: 17.07.08
Востаннє: 23.08.17
Повідомлень: 289

2016-06-27 11:11  
Зоотрополіс / Zootopia (2016) 1080p 3D [HalfOverUnder] Ukr/Eng | Sub Ukr/Eng

Зоотрополіс / Zootopia (2016) 1080p 3D [HalfOverUnder] Ukr/Eng | Sub Ukr/Eng


Жанр: анімація, екшн, пригодницький
Країна: США



Кінокомпанія: Walt Disney Pictures, Walt Disney Animation Studios
Режисер: Байрон Говард, Річ Мур, Джаред Буш
Актори: Джінніфер Гудвін, Джейсон Бейтмен, Ідріс Ельба, Дженні Слейт, Нейт Торренс, Бонні Гант, Дон Лейк, Томмі Чонґ, Дж.К. Сіммонс, Октавія Спенсер, Алан Тьюдік, Шакіра

Сюжет:
Ласкаво просимо у Зоотрополіс - сучасне місто, яке населяють найрізноманітніші тварини, від величезних слонів до крихітних мишок. Зоотрополіс розділений на райони, що повністю повторюють природне місце існування різних жителів. У цьому місті з'являється новий офіцер поліції, життєрадісна зайчиха Джуді Гоппс, яка з перших днів роботи розуміє, як складно бути маленькою і пухнастою серед великих і сильних поліцейських. Джуді хапається за першу ж можливість проявити себе, не дивлячись на те, що її партнером буде балакучий хитрий лис Нік Вайлд. Удвох їм доведеться розкрити складну справу, від якої буде залежати доля всіх мешканців Зоотрополісу.


Тривалість: 01:48:32
Якість: 1080p 3D [HalfOverUnder] ash61
Відео:
кодек:
розмір кадру: 1920 х 1080
бітрейт: 8639 кб/с

Аудіо # 1:
мова: українська
переклад: професійний дубльований
кодек: 5.1
бітрейт: 1536 кб/с

Аудіо # 2:
мова: англійська
переклад: оригінал
кодек: 5.1
бітрейт: 1536 кб/с

Субтитри:
мова: українська | by Gedet
тип: програмні (м'які)
формат: *.ass

Субтитри:
мова: англійська (повні, SDH)
тип: програмні (м'які)
формат: *.srt
Info
Код:
General
Unique ID                      : 238096051108410363026610905575227730632 (0xB31FA1A682C7DE33AD8C0DC471C92AC8)
Complete name                  : D:\3D\Мультики\Zootopia (2016) [Ukr.Eng] sub [Ukr.Eng] 1080p 3D [HalfOverUnder] [Hurtom].
Format                         :
Format version                 : Version 4 / Version 2
File size                      : 8.84 GiB
Duration                       : 1h 48mn
Overall bit rate               : 11.7 Mbps
Movie name                     : Зоотрополіс в 3D (2016)
Encoded date                   : UTC 2016-06-27 07:28:18
Writing application            : mkvmerge v8.8.0 ('Wind at my back') 64bit
Writing library                : libebml v1.3.3 + libmatroska v1.4.4
Cover                          : Yes
Attachments                    : cover.jpeg

Video
ID                             : 1
Format                         : AVC
Format/Info                    : Advanced Video Codec
Format profile                 : [email protected]
Format settings, CABAC         : Yes
Format settings, ReFrames      : 4 frames
Codec ID                       : V_MPEG4/ISO/AVC
Duration                       : 1h 48mn
Bit rate                       : 8 639 Kbps
Width                          : 1 920 pixels
Height                         : 1 080 pixels
Display aspect ratio           : 16:9
Frame rate mode                : Constant
Frame rate                     : 23.976 (24000/1001) fps
Color space                    : YUV
Chroma subsampling             : 4:2:0
Bit depth                      : 8 bits
Scan type                      : Progressive
Bits/(Pixel*Frame)             : 0.174
Stream size                    : 6.55 GiB (74%)
Title                          : Zootopia 3D
Writing library                : core 146 r2538 121396c
Encoding settings              : cabac=1 / ref=4 / deblock=1:-3:-3 / analyse=0x3:0x113 / me=umh / subme=10 / psy=1 / psy_rd=1.00:0.00 / mixed_ref=1 / me_range=32 / chroma_me=1 / trellis=2 / 8x8dct=1 / cqm=0 / deadzone=21,11 / fast_pskip=1 / chroma_qp_offset=-2 / threads=12 / lookahead_threads=3 / sliced_threads=0 / nr=0 / decimate=1 / interlaced=0 / bluray_compat=0 / constrained_intra=0 / bframes=10 / b_pyramid=2 / b_adapt=2 / b_bias=0 / direct=3 / weightb=1 / open_gop=0 / weightp=2 / keyint=250 / keyint_min=23 / scenecut=40 / intra_refresh=0 / rc_lookahead=60 / rc=crf / mbtree=1 / crf=15.5 / qcomp=0.70 / qpmin=0 / qpmax=69 / qpstep=4 / vbv_maxrate=40000 / vbv_bufsize=30000 / crf_max=0.0 / nal_hrd=none / filler=0 / frame-packing=4 / ip_ratio=1.40 / aq=1:0.70
Language                       : English
Default                        : Yes
Forced                         : No

Audio #1
ID                             : 2
Format                         :
Format/Info                    : Digital Theater Systems
Mode                           : 16
Format settings, Endianness    : Big
Codec ID                       : A_DTS
Duration                       : 1h 48mn
Bit rate mode                  : Constant
Bit rate                       : 1 509 Kbps
Channel(s)                     : 6 channels
Channel positions              : Front: L C R, Side: L R, LFE
Sampling rate                  : 48.0 KHz
Frame rate                     : 93.750 fps (512 spf)
Bit depth                      : 24 bits
Compression mode               : Lossy
Stream size                    : 1.14 GiB (13%)
Title                          : дубляж | 5.1 1536kbps
Language                       : Ukrainian
Default                        : Yes
Forced                         : No

Audio #2
ID                             : 3
Format                         :
Format/Info                    : Digital Theater Systems
Mode                           : 16
Format settings, Endianness    : Big
Codec ID                       : A_DTS
Duration                       : 1h 48mn
Bit rate mode                  : Constant
Bit rate                       : 1 509 Kbps
Channel(s)                     : 6 channels
Channel positions              : Front: L C R, Side: L R, LFE
Sampling rate                  : 48.0 KHz
Frame rate                     : 93.750 fps (512 spf)
Bit depth                      : 24 bits
Compression mode               : Lossy
Stream size                    : 1.14 GiB (13%)
Title                          : оригінал | 5.1 1536kbps
Language                       : English
Default                        : No
Forced                         : No

Text #1
ID                             : 4
Format                         : ASS
Codec ID                       : S_TEXT/ASS
Codec ID/Info                  : Advanced Sub Station Alpha
Duration                       : 1h 35mn
Bit rate                       : 183 bps
Count of elements              : 1407
Compression mode               : Lossless
Stream size                    : 128 KiB (0%)
Title                          : by Gedet
Language                       : Ukrainian
Default                        : No
Forced                         : No

Text #2
ID                             : 5
Format                         : UTF-8
Codec ID                       : S_TEXT/UTF8
Codec ID/Info                  : UTF-8 Plain Text
Duration                       : 1h 38mn
Bit rate                       : 71 bps
Count of elements              : 1698
Stream size                    : 52.0 KiB (0%)
Title                          : Full
Language                       : English
Default                        : No
Forced                         : No

Text #3
ID                             : 6
Format                         : UTF-8
Codec ID                       : S_TEXT/UTF8
Codec ID/Info                  : UTF-8 Plain Text
Duration                       : 1h 45mn
Bit rate                       : 82 bps
Count of elements              : 2293
Stream size                    : 63.7 KiB (0%)
Title                          : SDH
Language                       : English
Default                        : No
Forced                         : No

Menu
00:00:00.000                   : :1. Prologue
00:00:59.558                   : :2. Gideon Grey
00:05:50.098                   : :3. The Police Academy
00:10:05.562                   : :4. Welcome to Zootopia
00:14:31.537                   : :5. Meter Maid Duty
00:18:24.019                   : :6. Pawpsicles
00:26:03.353                   : :7. The Weasel Chase
00:30:57.438                   : :8. It's Called a Hustle
00:37:07.099                   : :9. The Naturalist Club
00:40:43.440                   : :10. Department of Mammal Vehicles
00:44:31.751                   : :11. Mr. Big
00:51:40.429                   : :12. Manchas Goes Savage
00:55:40.378                   : :13. The Gondola
01:00:48.268                   : :14. Help From Bellwether
01:03:37.855                   : :15. Cliffside Asylum
01:09:19.822                   : :16. We Cracked the Case
01:13:39.163                   : :17. Hopps Gives Up
01:17:07.372                   : :18. Hopps' Apology
01:21:52.364                   : :19. Doug's Laboratory
01:28:19.167                   : :20. The Natural History Museum
01:32:43.431                   : :21. Epilogue
01:36:12.140                   : :22. End Credits
Скріншоти
Джерело: &

Подяка пану Hanway за синхронізацію

Відео для перегляду на 3D обладнанні!


 Трекер:    Зареєстрований   

Завантажити / скачати мультфільм українською



відео для новачків



 Зареєстрований:   2016-06-27 11:11
 Розмір:   8.84 GB 
 Оцінка мультфільму:   9.5/10 (Голосів: 22)
   
Інші релізи
   Зоотрополіс / Zootopia (2016) AVC Ukr/Eng | Sub Ukr/Eng BASTERD-94  25 / 0   2.18 GB   2017-01-01 23:30 
   Зоотрополіс / Zootopia (2016) Ukr/Eng BASTERD-94  59 / 2   2.18 GB   2016-12-31 21:30 
   Зоотрополіс / Zootopia (2016) 720p-mini 60fps Ukr/Eng | Sub Ukr/Eng SilentBoss  12 / 0   4.12 GB   2016-08-15 19:44 
   Зоотрополіс / Zootopia (2016) Remux 1080p Ukr/Eng | Sub Ukr/Eng 11FrYkT  8 / 0   26.41 GB   2016-06-30 20:54 
   Зоотрополіс / Zootopia (2016) AVC Nikson  54 / 0   2.01 GB   2016-06-27 19:06 
   Зоотрополіс / Zootopia (2016) 720p Ukr/Eng | Sub Ukr/Eng Hanway  48 / 1   3.51 GB   2016-06-26 19:24 
   Зоотрополіс / Zootopia (2016) 1080p Ukr/Eng | Sub Ukr/Eng Hanway  64 / 1   8.38 GB   2016-06-26 18:06 
   Зоотрополіс / Zootopia (2016) Gelios  207 / 0   1.45 GB   2016-06-26 15:18 
Kastello 
Новенький


З нами з: 28.06.12
Востаннє: 22.08.17
Повідомлень: 7

2016-07-01 00:32  
Скажіть будь ласка, BD3D буде? а то вже з ХД клуба скачав, думав перемуксувати, не вийшло, шкода.
Можливо тут з'явиться.

-VipeR- 
VIP


З нами з: 17.07.08
Востаннє: 23.08.17
Повідомлень: 289

2016-07-01 18:22  
Kastello написано:
іть будь ласка, BD3D буде? а то вже з ХД клуба скачав, думав перемуксувати, не вийшло, шкода.

Ви хочете iso? Я не викладатиму, хіба хтось інший зголоситься, але то сумнівно.

Kastello 
Новенький


З нами з: 28.06.12
Востаннє: 22.08.17
Повідомлень: 7

2016-07-01 22:46  
-VipeR-
Так iso. Тут їх не часто релізять тому що мало хто качає таке?
Можливо хто знає як прикрутити аудіо доріжку?
Дякую.
Upd. Через tsMuxeR зробив, все працює. Буду насолоджуватись якістю зображення і українською доріжкою.

vovang6 
Свій


З нами з: 27.08.12
Востаннє: 23.08.17
Повідомлень: 90

2016-07-16 12:33  
Дякую за мультик, дуже класний, я зi своїми дiтьми декілька разів передивлявся)
Nemess 
Новенький


З нами з: 30.09.13
Востаннє: 20.08.17
Повідомлень: 4

2016-08-13 19:05  
ДЯКУЮ ЗА 3Д та й ще коханою мовою !
Ваш часовий пояс: GMT + 2 Години

Нова тема   Відповісти