Космічна місія / Atrapa la bandera (2015) 1080p 3D [HalfOverUnder] Ukr/Spa

Нові коментарі

Нова тема   Відповісти
Автор Повідомлення
-VipeR- 
VIP


З нами з: 17.07.08
Востаннє: 16.08.17
Повідомлень: 289

2016-06-22 18:31  
Космічна місія / Atrapa la bandera (2015) 1080p 3D [HalfOverUnder] Ukr/Spa

Космічна місія / Atrapa la bandera (2015) 1080p 3D [HalfOverUnder] Ukr/Spa


Жанр: мультфільм, комедія, пригоди
Країна: Іспанія



Кінокомпанія: 4 Cats Pictures, Lightbox Entertainment, Rockets La Película
Режисер: Енріке Гато
Актори: Карме Калвелл, Дані Ровіра, Мішель Хеннер, Каміло Гарсія, Тоні Мора

Сюжет:
Колись давно, в 1969 році, дідусь 12-річного Майка Голдвінга мав увійти до команди космонавтів, що летіли на Місяць. Однак в останній момент все помінялося і йому довелося залишитися на Землі. Відтоді дідусь дуже змінився і не хоче спілкуватися зі своєю сім'єю. Через багато років НАСА формує новий загін космонавтів для ще одного польоту на Місяць. Енергійний хлопець готовий зробити все що завгодно, лише б дідусь помирився з сім'єю, повернувся до своєї улюбленої справи і взяв участь в новому польоті. Але коли Майк планував політ для дідуся, йому навіть на думку не могло спасти, що на Місяць відправиться і він разом зі своєю кращою подругою Еммі і її чарівним улюбленцем хамелеоном, який стане талісманом команди астронавтів.


Тривалість: 01:34:33
Якість: 1080p 3D [HalfOverUnder]
Відео:
кодек:
розмір кадру: 1920 х 1080
бітрейт: 11 мбіт/с

Аудіо # 1:
мова: українська
переклад: професійний дубльований
кодек: 2.0
бітрейт: 192 кб/с

Аудіо # 2:
мова: іспанська
переклад: оригінал
кодек: 5.1
бітрейт: 640 кб/с
Info
Код:
General
Unique ID                      : 178586849062571113494792157882627964588 (0x865A937697D4AB7B8A5EBB1282A8BEAC)
Complete name                  : D:\3D\Створити папку\Atrapa la bandera (2015) 1080p 3D [Half Over Under] Ukr, Spa.
Format                         :
Format version                 : Version 4 / Version 2
File size                      : 7.95 GiB
Duration                       : 1h 34mn
Overall bit rate               : 12.0 Mbps
Movie name                     : Космічна місія / Atrapa la bandera (2015) 3D
Encoded date                   : UTC 2016-06-22 14:57:39
Writing application            : mkvmerge v8.8.0 ('Wind at my back') 64bit
Writing library                : libebml v1.3.3 + libmatroska v1.4.4
DURATION                       : 01:34:32.672000000
NUMBER_OF_FRAMES               : 177271
NUMBER_OF_BYTES                : 453813760
_STATISTICS_WRITING_APP        : mkvmerge v8.8.0 ('Wind at my back') 64bit
_STATISTICS_WRITING_DATE_UTC   : 2016-06-22 14:57:39
_STATISTICS_TAGS               : BPS DURATION NUMBER_OF_FRAMES NUMBER_OF_BYTES

Video
ID                             : 1
Format                         : AVC
Format/Info                    : Advanced Video Codec
Format profile                 : [email protected]
Format settings, CABAC         : Yes
Format settings, ReFrames      : 4 frames
Codec ID                       : V_MPEG4/ISO/AVC
Duration                       : 1h 34mn
Bit rate                       : 11.0 Mbps
Width                          : 1 920 pixels
Height                         : 1 080 pixels
Display aspect ratio           : 16:9
Frame rate mode                : Constant
Frame rate                     : 23.976 fps
Color space                    : YUV
Chroma subsampling             : 4:2:0
Bit depth                      : 8 bits
Scan type                      : Progressive
Bits/(Pixel*Frame)             : 0.220
Stream size                    : 7.24 GiB (91%)
Title                          : rip by I/N
Writing library                : core 128 r2216M 198a7ea
Encoding settings              : cabac=1 / ref=4 / deblock=1:-3:-3 / analyse=0x3:0x133 / me=umh / subme=10 / psy=1 / psy_rd=1.00:0.15 / mixed_ref=1 / me_range=48 / chroma_me=1 / trellis=2 / 8x8dct=1 / cqm=0 / deadzone=21,11 / fast_pskip=1 / chroma_qp_offset=-3 / threads=8 / lookahead_threads=1 / sliced_threads=0 / nr=0 / decimate=1 / interlaced=0 / bluray_compat=0 / constrained_intra=0 / bframes=8 / b_pyramid=2 / b_adapt=2 / b_bias=0 / direct=3 / weightb=1 / open_gop=0 / weightp=2 / keyint=230 / keyint_min=23 / scenecut=40 / intra_refresh=0 / rc_lookahead=60 / rc=crf / mbtree=1 / crf=15.0 / qcomp=0.60 / qpmin=10 / qpmax=69 / qpstep=4 / ip_ratio=1.40 / aq=1:0.90
Default                        : Yes
Forced                         : No

Audio #1
ID                             : 2
Format                         : AC-3
Format/Info                    : Audio Coding 3
Mode extension                 : CM (complete main)
Format settings, Endianness    : Big
Codec ID                       : A_AC3
Duration                       : 1h 34mn
Bit rate mode                  : Constant
Bit rate                       : 192 Kbps
Channel count                  : 2 channels
Channel positions              : Front: L R
Sampling rate                  : 48.0 KHz
Bit depth                      : 16 bits
Compression mode               : Lossy
Delay relative to video        : 24ms
Stream size                    : 130 MiB (2%)
Title                          : Ukr Dub 192
Language                       : Ukrainian
Default                        : Yes
Forced                         : No

Audio #2
ID                             : 3
Format                         : AC-3
Format/Info                    : Audio Coding 3
Mode extension                 : CM (complete main)
Format settings, Endianness    : Big
Codec ID                       : A_AC3
Duration                       : 1h 34mn
Bit rate mode                  : Constant
Bit rate                       : 640 Kbps
Channel count                  : 6 channels
Channel positions              : Front: L C R, Side: L R, LFE
Sampling rate                  : 48.0 KHz
Bit depth                      : 16 bits
Compression mode               : Lossy
Stream size                    : 433 MiB (5%)
Title                          : Original
Language                       : Spanish
Default                        : No
Forced                         : No

Menu
00:00:00.000                   : en:00:00:00.000
00:07:41.961                   : en:00:07:41.961
00:16:09.510                   : en:00:16:09.510
00:25:15.139                   : en:00:25:15.139
00:32:10.303                   : en:00:32:10.303
00:40:16.247                   : en:00:40:16.247
00:48:21.649                   : en:00:48:21.649
00:57:01.585                   : en:00:57:01.585
01:02:47.597                   : en:01:02:47.597
01:10:33.229                   : en:01:10:33.229
01:18:43.844                   : en:01:18:43.844
01:25:00.470                   : en:01:25:00.470
Скріншоти
Джерело:

Подяка за доріжку AngryBirdsUA , за синхронізацію подяка пану Hanway

Відео для перегляду на 3D обладнанні!


 Трекер:    Зареєстрований   

Завантажити / скачати мультфільм українською



відео для новачків



 Зареєстрований:   2016-06-22 18:31
 Розмір:   7.95 GB 
 Оцінка мультфільму:   10/10 (Голосів: 4)
   
Інші релізи
QWERTYJJJJJJ 
Поважний учасник


З нами з: 06.11.12
Востаннє: 16.08.17
Повідомлень: 203

2016-06-23 12:14  
Що за звук? Line, iTunes, MeGoGo, Mic?
igor911 
Відео Гуртом
Відео Гуртом


З нами з: 18.01.08
Востаннє: 17.08.17
Повідомлень: 7268

2016-06-23 12:27  
QWERTYJJJJJJ, Line та Mic завжди вказуються.
QWERTYJJJJJJ 
Поважний учасник


З нами з: 06.11.12
Востаннє: 16.08.17
Повідомлень: 203

2016-06-23 13:28  
igor911 написано:
Line та Mic завжди вказуються.
Через те й запитую, бо зазвичай джерело звуку і так вказано, а тут - ні
-VipeR- 
VIP


З нами з: 17.07.08
Востаннє: 16.08.17
Повідомлень: 289

2016-06-23 23:40  
QWERTYJJJJJJ
Якщо вам, принципово знати звідки звук, запитуйте у цій темі https://toloka.to/t73880

Ваш часовий пояс: GMT + 2 Години

Нова тема   Відповісти