Робінзон Крузо: Дуже заселений острів / Robinson Crusoe (2016) 1080p 3D [HalfOverUnder] Ukr/Ger

Нові коментарі

Нова тема   Відповісти
Автор Повідомлення
-VipeR- 
VIP


З нами з: 17.07.08
Востаннє: 23.08.17
Повідомлень: 289

2016-06-12 11:19  
Робінзон Крузо: Дуже заселений острів / Robinson Crusoe (2016) 1080p 3D [HalfOverUnder] Ukr/Ger

Робінзон Крузо: Дуже заселений острів / Robinson Crusoe (2016) 1080p 3D [HalfOverUnder] Ukr/Ger


Жанр: анімація, пригодницький, комедія
Країна: Франція, Бельгія



Кінокомпанія: StudioCanal, nWave Pictures, uFilm
Режисер: Бен Стассен / Ben Stassen, Вінсент Кестелут / Vincent Kesteloot
Актори: Рон Аллен / Ron Allen, Джордж Беббіт / George Babbit, Лайла Берзіньш / Laila Berzins, Ілька Бессін / Ilka Bessin, Джої Камен / Joey Camen, Джефф Дусетте / Jeff Doucette, Сенді Фокс / Sandy Fox, Дітер Галлерворден / Dieter Hallervorden, Кайл Герберт / Kyle Herbert

Сюжет:
Всі знають історію про Робінзона Крузо, який волею долі потрапив на безлюдний острів. Але далеко не всі знають, що там він не зустрів П'ятницю, а папугу на ім'я Вівторок і його вірних друзів – звірів-остров'ян. Разом з новими знайомими Крузо буде облаштовувати нове життя на острові, протистояти негараздам і чекати на прибуття рятувального корабля. Попереду у Робінзона і Вівторка неймовірно веселі пригоди!


Тривалість: 01:30:27
Якість: 1080p 3D [HalfOverUnder] ash61
Відео:
кодек:
розмір кадру: 1920 х 1080
бітрейт: 8 772 кб/с

Аудіо # 1:
мова: українська
переклад: професійний дубльований
кодек: 2.0
бітрейт: 192 кб/с
Інформація про дубляж

Ролі дублювали: Сергій Притула, Анатолій Зіновенко, Катерина Брайковська, Андрій Альохін, Катерина Буцька, Ярослав Чорненький, Юлія Перенчук, Юрій Ребрик, Андрій Федінчик, Павло Скороходько, Дмитро Завадський, Олександр Єфімов та інші.

Фільм дубльовано на студії ААА-sound у 2016 році на замовлення компанії "Вольга-Україна".
Аудіо # 2:
мова: німецька
переклад: оригінал
кодек: 5.1
бітрейт: 640 кб/с

Джерело озвучення:
Info
Код:
General
Unique ID                      : 237181594131402270681597886059112154817 (0xB26F8370C5ACEC98B93E7E89194DC6C1)
Complete name                  : D:\3D\Мультики\Robinson Crusoe (2016) 1080p 3D [HalfOverUnder] [ukr.ger].] [Hurtom].
Format                         :
Format version                 : Version 4 / Version 2
File size                      : 6.07 GiB
Duration                       : 1h 30mn
Overall bit rate               : 9 606 Kbps
Movie name                     : Робінзон Крузо: дуже заселений острів / Robinson Crusoe (2016) в 3Д
Encoded date                   : UTC 2016-06-12 07:39:02
Writing application            : mkvmerge v8.8.0 ('Wind at my back') 64bit
Writing library                : libebml v1.3.3 + libmatroska v1.4.4

Video
ID                             : 1
Format                         : AVC
Format/Info                    : Advanced Video Codec
Format profile                 : [email protected]
Format settings, CABAC         : Yes
Format settings, ReFrames      : 4 frames
Codec ID                       : V_MPEG4/ISO/AVC
Duration                       : 1h 30mn
Bit rate                       : 8 772 Kbps
Width                          : 1 920 pixels
Height                         : 1 080 pixels
Display aspect ratio           : 16:9
Frame rate mode                : Constant
Frame rate                     : 23.976 (24000/1001) fps
Color space                    : YUV
Chroma subsampling             : 4:2:0
Bit depth                      : 8 bits
Scan type                      : Progressive
Bits/(Pixel*Frame)             : 0.176
Stream size                    : 5.54 GiB (91%)
Title                          : by Ash61 (с BD 3D Ger)
Writing library                : core 146 r2538 121396c
Encoding settings              : cabac=1 / ref=4 / deblock=1:-3:-3 / analyse=0x3:0x113 / me=umh / subme=10 / psy=1 / psy_rd=1.00:0.00 / mixed_ref=1 / me_range=32 / chroma_me=1 / trellis=2 / 8x8dct=1 / cqm=0 / deadzone=21,11 / fast_pskip=1 / chroma_qp_offset=-2 / threads=12 / lookahead_threads=3 / sliced_threads=0 / nr=0 / decimate=1 / interlaced=0 / bluray_compat=0 / constrained_intra=0 / bframes=12 / b_pyramid=2 / b_adapt=2 / b_bias=0 / direct=3 / weightb=1 / open_gop=0 / weightp=2 / keyint=250 / keyint_min=23 / scenecut=40 / intra_refresh=0 / rc_lookahead=60 / rc=crf / mbtree=1 / crf=15.0 / qcomp=0.70 / qpmin=0 / qpmax=69 / qpstep=4 / vbv_maxrate=40000 / vbv_bufsize=30000 / crf_max=0.0 / nal_hrd=none / filler=0 / frame-packing=4 / ip_ratio=1.40 / aq=1:0.70
Language                       : French
Default                        : Yes
Forced                         : No

Audio #1
ID                             : 2
Format                         : AC-3
Format/Info                    : Audio Coding 3
Mode extension                 : CM (complete main)
Format settings, Endianness    : Big
Codec ID                       : A_AC3
Duration                       : 1h 30mn
Bit rate mode                  : Constant
Bit rate                       : 192 Kbps
Channel(s)                     : 2 channels
Channel positions              : Front: L R
Sampling rate                  : 48.0 KHz
Frame rate                     : 31.250 fps (1536 spf)
Compression mode               : Lossy
Stream size                    : 124 MiB (2%)
Title                          : Дубляж 192 megogo
Language                       : Ukrainian
Default                        : Yes
Forced                         : No

Audio #2
ID                             : 3
Format                         : AC-3
Format/Info                    : Audio Coding 3
Mode extension                 : CM (complete main)
Format settings, Endianness    : Big
Codec ID                       : A_AC3
Duration                       : 1h 30mn
Bit rate mode                  : Constant
Bit rate                       : 640 Kbps
Channel(s)                     : 6 channels
Channel positions              : Front: L C R, Side: L R, LFE
Sampling rate                  : 48.0 KHz
Frame rate                     : 31.250 fps (1536 spf)
Compression mode               : Lossy
Stream size                    : 414 MiB (7%)
Title                          : BD Ger 640
Language                       : German
Default                        : No
Forced                         : No

Menu
00:00:00.000                   : :1
00:11:40.323                   : :2
00:24:47.067                   : :3
00:35:02.266                   : :4
00:44:30.208                   : :5
00:54:34.271                   : :6
01:04:27.280                   : :7
01:15:12.632                   : :8
01:25:14.650                   : :9
Скріншоти
Джерело: &
Особиста оцінка: 9 - давно не бачив настільки якісне 3D

Відео для перегляду на 3D обладнанні!


 Трекер:    Зареєстрований   

Завантажити / скачати мультфільм українською



відео для новачків



 Зареєстрований:   2016-06-12 11:19
 Розмір:   6.07 GB 
 Оцінка мультфільму:   8.1/10 (Голосів: 11)
   
ilias26 
Новенький


З нами з: 20.08.16
Востаннє: 20.08.16
Повідомлень: 1

2016-08-20 01:27  
thanks
PUMAUA 
Свій


З нами з: 07.11.09
Востаннє: 15.08.17
Повідомлень: 79

2016-12-18 00:04  
Слів майже не чути, занадто гучні ефекти і тихий переклад.
Patriot_ukr 
VIP


З нами з: 06.04.15
Востаннє: 23.08.17
Повідомлень: 1762

2016-12-19 20:23  
PUMAUA
Або ж потрібно міняти програвач.

Ваш часовий пояс: GMT + 2 Години

Нова тема   Відповісти