Фінеас і Ферб / Phineas and Ferb (Сезон 1) (2007) 1080p | Ukr,Eng

Нові коментарі

Нова тема   Відповісти
Автор Повідомлення
sergiyko.5 
Забанено
Забанено


З нами з: 25.02.16
Востаннє: 29.10.20
Повідомлень: 3648

2016-06-10 16:15  
Фінеас і Ферб / Phineas and Ferb (Сезон 1) (2007) 1080p | Ukr,Eng


Фінеас і Ферб / Phineas and Ferb (Сезон 1) (2007) 1080p | Ukr,Eng

Жанр: анімація, комедія, пригодницький
Країна: США
Кінокомпанія: Disney Television Animation, Disney Channel Original Productions
Режисер: Джей Лендер, Роберт Ф. Хьюз

Українською озвучували: Фінеас - Денис Капустін, Кендас - Анна Кузіна, мама - Людмила Ардельян, доктор Дуфеншмірц - Дмитро Завадський, Лоренс (батько) - Михайло Войчук, Джеремі - Андрiй Федiнчик, а також Євген Малуха, Олександр Ігнатуша, Валерій Легін.

Сюжет:
Мультсеріал про двох зведених братів на літніх канікулах, що мешкають у передмісті. Кожен день вони вигадують божевільні плани і будують неймовірні винаходи, через що вони постійно конфліктують зі своєю сестрою Кендез, яка скаржиться мамі. Поряд з цим домашній улюбленець хлопчиків - качкодзьоб Перрі - діє як секретний агент і намагається зупинити лютого, але придуркуватого вченого на ім'я Хайнц Дуфеншмірц. Зазвичай, внаслідок дій Перрі та Дуфеншмірца все, що накоїли брати, зникає, а Кендез залишається у подиві...




Тривалість: 1 серія: 00:22:37 (цілком серій: 26)


Якість:

Відео: кодек: розмір кадру: 1920x1080 бітрейт: 3970 кб/с
Аудіо # 1: мова: українська переклад: професійний дубльований кодек: 2.0 бітрейт: 192 кб/с
Аудіо # 2: мова: англійська переклад: оригінал кодек: 2.0 бітрейт: 160 кб/с

Джерело озвучення:
Перелік серій
1. Американські гірки / Кендес втрачає голову
2. Швидкий Фінеас / Садові гноми і пляжна вечірка
3. Чудова трійця / Зима-Літо
4. Ви моя мумія? / Фабрика зірок
5. Роздратований хуліган / Світло. Кендез , почали!
6. Заберіть від мене цього Бігфута! / Битва халабудок
7. Машина часу (частини 1 і 2)
8. Цирк придурків / Зі всіту по іграшці
9. Налякай її (частини 1 і 2)
10. Важка це робота - бути лицарем / Я - Бробот
11. Мамин день народження / Подорож у центр Кендез
12. Подіум тікає з під ніг / Я кричу, ти кричиш
13. Світ - це багно! / Балада Гидь-Бороди
14. Чуваки, ми знову збираємо групу (частини 1 і 2)
15. В гостях у "Бетті" / Летючий Риболов
16. Нарешті! (Фінеаса і Ферба попалили)
17. Грецька блискавка / Ми попалимо їх за вас
18. Покажи їм / Ледачий день
19. 27000 років до нашої ери / Подорож у глиб Бюфорда
20. Заберіть від мене ключки / Цей качиний ніс мене повнить?
21. Операція "Камера" / Драматичний боулінг
22. Монстр Фінеаса і Фербенштейна / Кендез в Оліі
23. Науковий ярмарок / Науковий ярмарок (інша версія)
24. Комсічна подорож (частини 1 і 2)
25. Пограємо у гру? / Комета Керміліана
26. У ритмі танцю / Слався Дуфенія!
Info
General
Unique ID : 180069911050414609247918808192585017963 (0x877834108C7B29DEABE367F769DBAA6B)
Complete name : E:\Torrents\Mult_2\Phineas and Ferb S01 1080p\Phineas.and.Ferb.S01E01.Rollercoaster-Candace.Loses.Her.Head..1080p.Ukr.Eng.
Format :
Format version : Version 4 / Version 2
File size : 699 MiB
Duration : 22mn 36s
Overall bit rate : 4 322 Kbps
Encoded date : UTC 2016-05-31 11:41:56
Writing application : v9.0.1 ('Obstacles') 64bit
Writing library : libebml v1.3.3 + v1.4.4

Video
ID : 1
Format : AVC
Format/Info : Advanced Video Codec
Format profile : [email protected]
Format settings, CABAC : Yes
Format settings, ReFrames : 4 frames
Codec ID : V_MPEG4/ISO/AVC
Duration : 22mn 36s
Bit rate : 3 970 Kbps
Width : 1 920 pixels
Height : 1 080 pixels
Display aspect ratio : 16:9
Frame rate mode : Constant
Frame rate : 23.976 (23976/1000) fps
Color space : YUV
Chroma subsampling : 4:2:0
Bit depth : 8 bits
Scan type : Progressive
Bits/(Pixel*Frame) : 0.080
Stream size : 642 MiB (92%)
Title : Phineas.and.Ferb.S01E01
Language : English
Default : Yes
Forced : No
Color range : Limited
Color primaries : BT.709
Transfer characteristics : BT.709
Matrix coefficients : BT.709

Audio #1
ID : 2
Format : AC-3
Format/Info : Audio Coding 3
Mode extension : CM (complete main)
Format settings, Endianness : Big
Codec ID : A_AC3
Duration : 22mn 36s
Bit rate mode : Constant
Bit rate : 192 Kbps
Channel(s) : 2 channels
Channel positions : Front: L R
Sampling rate : 48.0 KHz
Frame rate : 31.250 fps (1536 spf)
Compression mode : Lossy
Stream size : 31.1 MiB (4%)
Title : 192kbps | ПлюсПлюс
Language : Ukrainian
Default : Yes
Forced : Yes

Audio #2
ID : 3
Format :
Format/Info : Advanced Audio Codec
Format profile : LC
Codec ID : A_AAC
Duration : 22mn 36s
Bit rate : 158 Kbps
Channel(s) : 2 channels
Channel positions : Front: L R
Sampling rate : 48.0 KHz
Frame rate : 46.875 fps (1024 spf)
Compression mode : Lossy
Stream size : 25.5 MiB (4%)
Language : English
Default : No
Forced : No
Скріншоти:



Реліз:
sergiyko



Бронзовий реліз (на рейтинг впливає 75% завантаженого)
 Трекер:    Зареєстрований   

Завантажити / скачати мультфільм українською



відео для новачків



 Зареєстрований:   2016-06-10 16:15
 Розмір:   18.82 GB 
 Оцінка мультсеріалу:   9.7/10 (Голосів: 35)
   
andriyandriy100 
Частий відвідувач


З нами з: 09.04.15
Востаннє: 16.01.21
Повідомлень: 32

2016-06-12 20:31  
дякую
andriyandriy100 
Частий відвідувач


З нами з: 09.04.15
Востаннє: 16.01.21
Повідомлень: 32

2016-07-17 21:44  
4 сезон буде?
sergiyko.5 
Забанено
Забанено


З нами з: 25.02.16
Востаннє: 29.10.20
Повідомлень: 3648

2016-07-17 22:24  
буде, тільки не скажу коли. в планах всі сезони, поки записую з трансляції всі серії що є.
Ваш часовий пояс: GMT + 2 Години

Нова тема   Відповісти