Індики: назад у майбутнє / Free Birds (2013) 1080p 3D [Half OverUnder] Ukr/Eng | Sub Eng/Spa

Нові коментарі

Нова тема   Відповісти
Автор Повідомлення
-VipeR- 
VIP


З нами з: 17.07.08
Востаннє: 21.08.17
Повідомлень: 289

2016-06-06 11:30  
Індики: назад у майбутнє / Free Birds (2013) 1080p 3D [Half OverUnder] Ukr/Eng | Sub Eng/Spa

Індики: назад у майбутнє / Free Birds (2013) 1080p 3D [Half OverUnder] Ukr/Eng | Sub Eng/Spa


Жанр: анімація, пригодницький, комедія
Країна: США



Кінокомпанія: Reel FX Creative Studios, Relativity Media
Режисер: Джиммі Гейворд
Актори: Овен Вілсон, Вуді Гарельсон, Прісцилла Барнс, Джордж Такей, Колм Міні, Кіт Девід, Ден Фоґлер, Джиммі Гейворд, Кейтлін Мегер, Карлос Аласракі

Сюжет:
Індик Реджі виріс на звичайній фермі, його життя було нудним і одноманітним, як і у інших птахів. Однак він відрізнявся від родичів тим, що вмів користуватися кмітливістю і розумів, навіщо його годують. Поїдання індички на День Подяки — знаменита американська традиція, яка визначає сенс існування всіх індиків на цій фермі. Одного разу у Реджі з'явилася можливість кардинально змінити ситуацію: разом з божевільним приятелем Джейком вони відправляються в незвичайну подорож машиною часу. Основне завдання — повернутися в часи, коли зароджувалася традиція приготування індички на свято, і змінити хід історії.


Тривалість: 01:31:03
Якість: 1080p 3D [HalfOverUnder] ash61
Відео:
кодек:
розмір кадру: 1920 х 1080
бітрейт: 9 440 кб/с

Аудіо # 1:
мова: українська
переклад: багатоголосий закадровий
кодек: 2.0
бітрейт: 192 кб/с

Аудіо # 2:
мова: англійська
переклад: оригінал
кодек: 5.1
бітрейт: 640 кб/с

Джерело озвучення:


Субтитри:
мова: англійська
тип: програмні (м'які)
формат: *.srt

Субтитри:
мова: іспанська
тип: програмні (м'які)
формат: *.srt
Info
Код:
General
Unique ID                      : 218345447408798941797921433743136838222 (0xA443CDB4B35F32AD8BC9E2AC522ED24E)
Complete name                  : D:\3D\Мультики\Free Birds (2013) 1080p 3D [HalfOverUnder] [ukr] [Hurtom].
Format                         :
Format version                 : Version 4 / Version 2
File size                      : 6.53 GiB
Duration                       : 1h 31mn
Overall bit rate               : 10.3 Mbps
Movie name                     : Індики: назад у майбутнє / Free Birds (2013) 3D
Encoded date                   : UTC 2016-06-06 09:07:14
Writing application            : mkvmerge v8.8.0 ('Wind at my back') 64bit
Writing library                : libebml v1.3.3 + libmatroska v1.4.4

Video
ID                             : 1
Format                         : AVC
Format/Info                    : Advanced Video Codec
Format profile                 : [email protected]
Format settings, CABAC         : Yes
Format settings, ReFrames      : 4 frames
Codec ID                       : V_MPEG4/ISO/AVC
Duration                       : 1h 31mn
Bit rate                       : 9 440 Kbps
Width                          : 1 920 pixels
Height                         : 1 080 pixels
Display aspect ratio           : 16:9
Frame rate mode                : Constant
Frame rate                     : 23.976 (24000/1001) fps
Color space                    : YUV
Chroma subsampling             : 4:2:0
Bit depth                      : 8 bits
Scan type                      : Progressive
Bits/(Pixel*Frame)             : 0.190
Stream size                    : 6.00 GiB (92%)
Title                          : by Ash61
Writing library                : core 129 r2245 bc13772
Encoding settings              : cabac=1 / ref=4 / deblock=1:-3:-3 / analyse=0x3:0x113 / me=umh / subme=10 / psy=1 / psy_rd=1.00:0.15 / mixed_ref=1 / me_range=32 / chroma_me=1 / trellis=2 / 8x8dct=1 / cqm=0 / deadzone=21,11 / fast_pskip=1 / chroma_qp_offset=-3 / threads=12 / lookahead_threads=2 / sliced_threads=0 / nr=0 / decimate=1 / interlaced=0 / bluray_compat=0 / constrained_intra=0 / bframes=8 / b_pyramid=2 / b_adapt=2 / b_bias=0 / direct=3 / weightb=1 / open_gop=0 / weightp=2 / keyint=250 / keyint_min=23 / scenecut=40 / intra_refresh=0 / rc_lookahead=60 / rc=crf / mbtree=1 / crf=17.0 / qcomp=0.70 / qpmin=0 / qpmax=69 / qpstep=4 / vbv_maxrate=40000 / vbv_bufsize=30000 / crf_max=0.0 / nal_hrd=none / frame-packing=4 / ip_ratio=1.40 / aq=1:0.70
Language                       : English
Default                        : Yes
Forced                         : No

Audio #1
ID                             : 2
Format                         : AC-3
Format/Info                    : Audio Coding 3
Mode extension                 : CM (complete main)
Format settings, Endianness    : Big
Codec ID                       : A_AC3
Duration                       : 1h 31mn
Bit rate mode                  : Constant
Bit rate                       : 192 Kbps
Channel(s)                     : 2 channels
Channel positions              : Front: L R
Sampling rate                  : 48.0 KHz
Frame rate                     : 31.250 fps (1536 spf)
Compression mode               : Lossy
Stream size                    : 125 MiB (2%)
Title                          : 192 kb/s ТЕТ
Language                       : Ukrainian
Default                        : Yes
Forced                         : No

Audio #2
ID                             : 3
Format                         : AC-3
Format/Info                    : Audio Coding 3
Mode extension                 : CM (complete main)
Format settings, Endianness    : Big
Codec ID                       : A_AC3
Duration                       : 1h 31mn
Bit rate mode                  : Constant
Bit rate                       : 640 Kbps
Channel(s)                     : 6 channels
Channel positions              : Front: L C R, Side: L R, LFE
Sampling rate                  : 48.0 KHz
Frame rate                     : 31.250 fps (1536 spf)
Compression mode               : Lossy
Stream size                    : 417 MiB (6%)
Title                          : , 6 ch, 48 kHz, 640 kbps - Original
Language                       : English
Default                        : No
Forced                         : No

Text #1
ID                             : 4
Format                         : UTF-8
Codec ID                       : S_TEXT/UTF8
Codec ID/Info                  : UTF-8 Plain Text
Duration                       : 1h 24mn
Bit rate                       : 59 bps
Count of elements              : 1169
Stream size                    : 37.2 KiB (0%)
Title                          : SRT, Full
Language                       : English
Default                        : No
Forced                         : No

Text #2
ID                             : 5
Format                         : UTF-8
Codec ID                       : S_TEXT/UTF8
Codec ID/Info                  : UTF-8 Plain Text
Duration                       : 1h 25mn
Bit rate                       : 69 bps
Count of elements              : 1383
Stream size                    : 43.1 KiB (0%)
Title                          : SRT, (SDH)
Language                       : English
Default                        : No
Forced                         : No

Text #3
ID                             : 6
Format                         : UTF-8
Codec ID                       : S_TEXT/UTF8
Codec ID/Info                  : UTF-8 Plain Text
Duration                       : 1h 25mn
Bit rate                       : 58 bps
Count of elements              : 1078
Stream size                    : 36.5 KiB (0%)
Title                          : SRT, Full
Language                       : Spanish
Default                        : No
Forced                         : No

Menu
00:00:00.000                   : :1
00:05:46.638                   : :2
00:10:19.744                   : :3
00:16:16.767                   : :4
00:22:34.687                   : :5
00:26:28.629                   : :6
00:33:04.024                   : :7
00:39:01.256                   : :8
00:43:44.121                   : :9
00:48:26.028                   : :10
00:55:57.271                   : :11
01:01:39.738                   : :12
01:07:37.345                   : :13
01:14:21.248                   : :14
01:20:09.638                   : :15
01:23:56.073                   : :16
Скріншоти

Джерело: &

Відео для перегляду на 3D обладнанні!


 Трекер:    Зареєстрований   

Завантажити / скачати мультфільм українською



відео для новачків



 Зареєстрований:   2016-06-26 11:02
 Розмір:   6.53 GB 
 Оцінка мультфільму:   10/10 (Голосів: 4)
   
vovang6 
Свій


З нами з: 27.08.12
Востаннє: 12.08.17
Повідомлень: 90

2016-06-06 21:28  
А буде HD не 3D?
-VipeR- 
VIP


З нами з: 17.07.08
Востаннє: 21.08.17
Повідомлень: 289

2016-06-06 23:24  
Цитата:
А буде HD не 3D?

Буде, навіть анонс є.

chuvilllo1 
Новенький


З нами з: 21.12.15
Востаннє: 19.08.17
Повідомлень: 3

2016-06-11 13:12  
станьте хтось на роздачу, будь ласка
Olesyatr 
Новенький


З нами з: 17.12.07
Востаннє: 22.08.17
Повідомлень: 4

2016-06-12 11:11  
То тільки у мене звук відстає від відео?
-VipeR- 
VIP


З нами з: 17.07.08
Востаннє: 21.08.17
Повідомлень: 289

2016-06-12 15:51  
Olesyatr написано:
То тільки у мене звук відстає від відео?

Дійсно, не великий розсинхрон присутній.

igor911 
Відео Гуртом
Відео Гуртом


З нами з: 18.01.08
Востаннє: 22.08.17
Повідомлень: 7318

2016-06-13 17:04  
vovang6 написано:
А буде HD не 3D?

Ось 720p з двома укр. доріжками.

-VipeR- 
VIP


З нами з: 17.07.08
Востаннє: 21.08.17
Повідомлень: 289

2016-06-26 11:04  
Торрент оновлено!

Виправлено проблему з синхронізацією звукової доріжки

Ваш часовий пояс: GMT + 2 Години

Нова тема   Відповісти