Індики: назад у майбутнє (повернення в майбутнє) / Free Birds (2013) 720p 2xUkr/Eng | Sub Eng/Spa

Нові коментарі

Нова тема   Відповісти
Автор Повідомлення
Anonymous 







2016-06-06 00:14  
Індики: назад у майбутнє / Індики: повернення в майбутнє / Free Birds (2013) 720p 2xUkr/Eng | Sub Eng/Spa



Жанр: анімація, пригодницький, комедія
Країна: США



Кінокомпанія: Reel FX Creative Studios, Relativity Media
Режисер: Джиммі Гейворд
Актори: Овен Вілсон, Вуді Гарельсон, Прісцилла Барнс, Джордж Такей, Колм Міні, Кіт Девід, Ден Фоґлер, Джиммі Гейворд, Кейтлін Мегер, Карлос Аласракі

Сюжет:
Індик Реджі виріс на звичайній фермі, його життя було нудним і одноманітним, як і у інших птахів. Однак він відрізнявся від родичів тим, що вмів користуватися кмітливістю і розумів, навіщо його годують. Поїдання індички на День Подяки — знаменита американська традиція, яка визначає сенс існування всіх індиків на цій фермі. Одного разу у Реджі з'явилася можливість кардинально змінити ситуацію: разом з божевільним приятелем Джейком вони відправляються в незвичайну подорож машиною часу. Основне завдання — повернутися в часи, коли зароджувалася традиція приготування індички на свято, і змінити хід історії.


Тривалість: 01:31:03
Якість: 720p [USA Transfer]
Відео:
кодек:
розмір кадру: 1280x694
бітрейт: 3645 Кбіт/с

Аудіо # 1:
мова: українська
переклад: багатоголосий закадровий
кодек: 2.0
бітрейт: 192 Кбіт/с

Аудіо # 2:
мова: українська
переклад: професійний дубльований (MIC)
кодек: 2.0
бітрейт: 192 Кбіт/с

Аудіо # 3:
мова: англійська
переклад: оригінал
кодек: 5.1
бітрейт: 640 Кбіт/с

Субтитри #1:
мова: українська (форсовані, на неозвучений епізод у титрах)
тип: програмні (м'які)
формат: *.srt

Субтитри #2-4:
мова: англійська (повні, SDH), іспанська
тип: програмні (м'які)
формат: *.srt

Збережено оригінальні розділи, як на Blu-ray.
Info та log
Код:
Complete name               : Free Birds (2013) [2xUkr,Eng sub.Eng,Spa] 720p [Hurtom].
Format                      :
Format version              : Version 4 / Version 2
File size                   : 2.97 GiB
Duration                    : 1h 31mn
Overall bit rate            : 4 673 Kbps
Movie name                  : Індики: назад у майбутнє / Free Birds (2013) [2xUkr,Eng sub.Eng,Spa] 720p [Hurtom] by igor911
Encoded date                : UTC 2016-06-13 09:32:25
Writing application         : mkvmerge v9.2.0 ('Photograph') 64bit
Writing library             : libebml v1.3.3 + libmatroska v1.4.4
Cover                       : Yes
Attachments                 : cover.jpg

Video
ID                          : 1
Format                      : AVC
Format/Info                 : Advanced Video Codec
Format profile              : [email protected]
Format settings, CABAC      : Yes
Format settings, ReFrames   : 9 frames
Codec ID                    : V_MPEG4/ISO/AVC
Duration                    : 1h 31mn
Bit rate                    : 3 646 Kbps
Width                       : 1 280 pixels
Height                      : 694 pixels
Display aspect ratio        : 1.85:1
Frame rate mode             : Constant
Frame rate                  : 23.976 (24000/1001) fps
Color space                 : YUV
Chroma subsampling          : 4:2:0
Bit depth                   : 8 bits
Scan type                   : Progressive
Bits/(Pixel*Frame)          : 0.171
Stream size                 : 2.32 GiB (78%)
Title                       : Індики: назад у майбутнє / Free Birds (2013) 720p (US Transfer) [tRuAVC/Multfilmy/DFCbit]
Writing library             : core 142 r2389kMod 956c8d8
Encoding settings           : cabac=1 / ref=9 / deblock=1:-2:-1 / analyse=0x3:0x133 / me=umh / subme=11 / psy=1 / fade_compensate=0.00 / psy_rd=0.63:0.00 / mixed_ref=1 / me_range=32 / chroma_me=1 / trellis=2 / 8x8dct=1 / cqm=0 / deadzone=21,11 / fast_pskip=0 / chroma_qp_offset=-2 / threads=12 / lookahead_threads=3 / sliced_threads=0 / nr=0 / decimate=1 / interlaced=0 / bluray_compat=0 / constrained_intra=0 / fgo=0 / bframes=11 / b_pyramid=2 / b_adapt=2 / b_bias=0 / direct=1 / weightb=1 / open_gop=0 / weightp=2 / keyint=250 / keyint_min=23 / scenecut=40 / intra_refresh=0 / rc_lookahead=70 / rc=crf / mbtree=0 / crf=17.5500 / qcomp=0.81 / qpmin=0 / qpmax=69 / qpstep=4 / vbv_maxrate=50000 / vbv_bufsize=62500 / crf_max=0.0 / nal_hrd=none / filler=0 / ip_ratio=1.40 / pb_ratio=1.30 / aq=3:0.90
Language                    : English
Default                     : Yes
Forced                      : No
Color range                 : Limited
Color primaries             : BT.709
Transfer characteristics    : BT.709
Matrix coefficients         : BT.709

Audio #1
ID                          : 2
Format                      : AC-3
Format/Info                 : Audio Coding 3
Mode extension              : CM (complete main)
Format settings, Endianness : Big
Codec ID                    : A_AC3
Duration                    : 1h 31mn
Bit rate mode               : Constant
Bit rate                    : 192 Kbps
Channel(s)                  : 2 channels
Channel positions           : Front: L R
Sampling rate               : 48.0 KHz
Frame rate                  : 31.250 fps (1536 spf)
Compression mode            : Lossy
Stream size                 : 125 MiB (4%)
Title                       : MVO [TET] 2.0 192 kbps [Hurtom-Gelios,slavik_v_z]
Language                    : Ukrainian
Default                     : Yes
Forced                      : No

Audio #2
ID                          : 3
Format                      : AC-3
Format/Info                 : Audio Coding 3
Mode extension              : CM (complete main)
Format settings, Endianness : Big
Codec ID                    : A_AC3
Duration                    : 1h 31mn
Bit rate mode               : Constant
Bit rate                    : 192 Kbps
Channel(s)                  : 2 channels
Channel positions           : Front: L R
Sampling rate               : 48.0 KHz
Frame rate                  : 31.250 fps (1536 spf)
Compression mode            : Lossy
Stream size                 : 125 MiB (4%)
Title                       : Dub [MIC] 2.0 192 kbps [Hurtom-legos25]
Language                    : Ukrainian
Default                     : No
Forced                      : No

Audio #3
ID                          : 4
Format                      : AC-3
Format/Info                 : Audio Coding 3
Mode extension              : CM (complete main)
Format settings, Endianness : Big
Codec ID                    : A_AC3
Duration                    : 1h 31mn
Bit rate mode               : Constant
Bit rate                    : 640 Kbps
Channel(s)                  : 6 channels
Channel positions           : Front: L C R, Side: L R, LFE
Sampling rate               : 48.0 KHz
Frame rate                  : 31.250 fps (1536 spf)
Compression mode            : Lossy
Stream size                 : 417 MiB (14%)
Title                       : , 6 ch, 48 kHz, 640 kbps - Original
Language                    : English
Default                     : No
Forced                      : No

Text #1
ID                          : 5
Format                      : UTF-8
Codec ID                    : S_TEXT/UTF8
Codec ID/Info               : UTF-8 Plain Text
Duration                    : 1mn 1s
Bit rate                    : 37 bps
Count of elements           : 4
Stream size                 : 292 Bytes (0%)
Title                       : Ukr Forced
Language                    : Ukrainian
Default                     : Yes
Forced                      : Yes

Text #2
ID                          : 6
Format                      : UTF-8
Codec ID                    : S_TEXT/UTF8
Codec ID/Info               : UTF-8 Plain Text
Duration                    : 1h 24mn
Bit rate                    : 59 bps
Count of elements           : 1169
Stream size                 : 37.2 KiB (0%)
Title                       : Eng Full
Language                    : English
Default                     : No
Forced                      : No

Text #3
ID                          : 7
Format                      : UTF-8
Codec ID                    : S_TEXT/UTF8
Codec ID/Info               : UTF-8 Plain Text
Duration                    : 1h 25mn
Bit rate                    : 69 bps
Count of elements           : 1383
Stream size                 : 43.1 KiB (0%)
Title                       : Eng SDH
Language                    : English
Default                     : No
Forced                      : No

Text #4
ID                          : 8
Format                      : UTF-8
Codec ID                    : S_TEXT/UTF8
Codec ID/Info               : UTF-8 Plain Text
Duration                    : 1h 25mn
Bit rate                    : 58 bps
Count of elements           : 1078
Stream size                 : 36.5 KiB (0%)
Title                       : Spa Full
Language                    : Spanish
Default                     : No
Forced                      : No

Menu
00:00:00.000                : en:Chapter 1
00:03:48.186                : en:Chapter 2
00:09:36.451                : en:Chapter 3
00:13:31.811                : en:Chapter 4
00:17:51.487                : en:Chapter 5
00:22:35.104                : en:Chapter 6
00:26:29.505                : en:Chapter 7
00:30:57.022                : en:Chapter 8
00:33:04.900                : en:Chapter 9
00:36:19.260                : en:Chapter 10
00:39:26.447                : en:Chapter 11
00:40:29.469                : en:Chapter 12
00:43:32.860                : en:Chapter 13
00:46:35.292                : en:Chapter 14
00:49:44.523                : en:Chapter 15
00:54:15.419                : en:Chapter 16
01:00:08.730                : en:Chapter 17
01:02:53.061                : en:Chapter 18
01:07:34.968                : en:Chapter 19
01:10:32.812                : en:Chapter 20
01:14:21.332                : en:Chapter 21
01:16:43.224                : en:Chapter 22
01:19:38.941                : en:Chapter 23
01:23:57.741                : en:Chapter 24


Код:
raw [info]: 1280x694p 1:1 @ 24000/1001 fps (cfr)
[info]: using SAR=1/1
[info]: using cpu capabilities: MMX2 SSE2Fast SSSE3 SSE4.2 AVX XOP FMA4 FMA3 LZCNT BMI1
[info]: profile High, level 4.1
[info]: frame I:1544  Avg QP:12.46  size:144273  PSNR Mean Y:49.99 U:53.27 V:53.38 Avg:50.70 Global:49.90
[info]: frame P:35798 Avg QP:15.00  size: 34330  PSNR Mean Y:48.61 U:53.77 V:53.88 Avg:49.40 Global:48.45
[info]: frame B:93650 Avg QP:18.06  size: 11083  PSNR Mean Y:48.11 U:53.73 V:53.83 Avg:48.97 Global:47.75
[info]: consecutive B-frames:  4.6%  5.6%  8.3% 58.6%  6.6% 10.0%  1.4%  3.1%  0.4%  0.2%  0.3%  1.1%
[info]: mb I  I16..4:  8.0% 60.0% 32.0%
[info]: mb P  I16..4:  1.6% 11.5%  3.0%  P16..4: 21.0% 21.8% 10.4%  2.7%  0.4%    skip:27.5%
[info]: mb B  I16..4:  0.3%  1.9%  0.4%  B16..8: 23.2% 14.2%  2.9%  direct: 3.5%  skip:53.6%  L0:41.5% L1:45.0% BI:13.5%
[info]: 8x8 transform intra:70.0% inter:48.0%
[info]: coded y,uvDC,uvAC intra: 79.8% 85.2% 70.4% inter: 13.9% 12.1% 3.9%
[info]: i16 v,h,dc,p: 28% 11%  5% 56%
[info]: i8 v,h,dc,ddl,ddr,vr,hd,vl,hu: 12% 11% 10%  9% 11% 10% 11% 11% 15%
[info]: i4 v,h,dc,ddl,ddr,vr,hd,vl,hu: 15%  9%  9%  9% 14% 12% 12% 10% 12%
[info]: i8c dc,h,v,p: 37% 29% 17% 17%
[info]: Weighted P-Frames: Y:6.3% UV:4.4%
[info]: ref P L0: 54.5%  7.6% 14.4%  6.9%  4.8%  4.1%  3.2%  2.1%  1.9%  0.4%  0.0%
[info]: ref B L0: 76.8%  9.7%  5.3%  2.9%  2.3%  1.6%  1.0%  0.4%
[info]: ref B L1: 93.6%  6.4%
[info]: SSIM Mean Y:0.9904631 (20.206db)
[info]: PSNR Mean Y:48.267 U:53.734 V:53.837 Avg:49.109 Global:47.950 kb/s:3645.52
encoded 130992 frames, 9.09 fps, 3645.52 kb/s


Джерела та подяки: &
українські доріжки - 1) Gelios - зведення, slavik_v_z - запис з ТБ, 2) legos25 (всі - Гуртом).

ЗАЛИШАЙТЕСЬ ЯКОМОГА ДОВШЕ НА РОЗДАЧІ!

СКАЧАВ САМ - ДАЙ СКАЧАТИ ІНШИМ


 Трекер:    Зареєстрований   

Завантажити / скачати мультфільм українською



відео для новачків



 Зареєстрований:   2016-06-13 15:44
 Розмір:   2.97 GB 
 Оцінка мультфільму:   6.1/10 (Голосів: 24)
   
Ваш часовий пояс: GMT + 2 Години

Нова тема   Відповісти