Відьми Іст-Енду (Сезон 1) / Witches of East End (Season 1) (2013) 720p Ukr/Eng | sub Eng

Нові коментарі

Нова тема   Відповісти
Автор Повідомлення
Anonymous 







2016-06-05 18:49  
Відьми Іст-Енду (Сезон 1) / Witches of East End (Season 1) (2013) 720p Ukr/Eng | sub Eng

Відьми Іст-Енду (Сезон 1) / Witches of East End (Season 1) (2013) 720p Ukr/Eng | sub Eng


Жанр: фентезі, драма
Країна: США



Кінокомпанія: Fox 21, 3 Arts Entertainment, Curly Girly Productions
Режисер: Меггі Фрідмен (Maggie Friedman)
Актори: Джулієя Ормонд (Julia Ormond), Дженна Дуан-Татум (Jenna Dewan Tatum), Рейчел Бостон (Rachel Boston), Медхен Емік (Mädchen Amick)

Сюжет:
Серіал засновано на однойменній серії романів письменниці Мелісси де ла Круз. У центрі історії знаходиться сімейство Бошан - могутні добрі відьми, на чолі з безсмертною Джоан. Мати-одиначка Джоанна має двох дорослих доньок Інгрід і Фрей, які не знають про свої сили, так як Джоанна не хоче, щоб вони рано померли, як в минулих їхніх життях. Однак Венді, зухвала сестра Джоанни навпаки хоче, щоб Інгрід і Фрейя дізналися про свої сили і продовжили їхній шлях.


Тривалість: 1 серія: 42:00 (цілком серій: 10)
Перелік серій
01. Pilot
02. Marilyn Fenwick, R.I.P.
03. Today I Am a Witch
04. A Few Good Talismen
05. Electric Avenue
06. Potentia Noctis
07. Unburied
08. Snake Eyes
09. A Parching Imbued
10. Oh, What a World!
Якість:
Відео:
кодек:
розмір кадру: 1280 x 718
бітрейт: ~4000 кб/с

Аудіо # 1:
мова: українська
переклад: багатоголосий закадровий
кодек: 2.0
бітрейт: 192 кб/с

Аудіо # 2:
мова: англійська
переклад: оригінал
кодек: 5.1
бітрейт: 384 кб/с

Джерело озвучення:


Субтитри:
мова: англійська
тип: програмні (м'які)
формат: *.srt
Info
General
Unique ID : 177362907841809238479187991275886779528 (0x856EDA808605F62BB906CF59A1F69C88)
Complete name : E:\_inbox\torrents\Support\Witches of East End (Season 1) [, 720p, Ukr, Eng]\Witches of East End. S01E01. Pilot.
Format :
Format version : Version 2
File size : 1.40 GiB
Duration : 42mn 56s
Overall bit rate : 4 676 Kbps
Encoded date : UTC 2016-05-13 10:42:22
Writing application : v4.9.1 ('Ich will') зібрано Jul 11 2011 23:53:15
Writing library : libebml v1.2.1 + v1.1.1

Video
ID : 1
Format : AVC
Format/Info : Advanced Video Codec
Format profile : [email protected]
Format settings, CABAC : No
Format settings, ReFrames : 2 frames
Codec ID : V_MPEG4/ISO/AVC
Duration : 42mn 56s
Bit rate : 4 007 Kbps
Width : 1 280 pixels
Height : 718 pixels
Display aspect ratio : 16:9
Frame rate mode : Constant
Frame rate : 23.976 fps
Color space : YUV
Chroma subsampling : 4:2:0
Bit depth : 8 bits
Scan type : Progressive
Bits/(Pixel*Frame) : 0.182
Stream size : 1.20 GiB (86%)
Language : English
Default : No
Forced : No
Color range : Limited
Color primaries : BT.709
Transfer characteristics : BT.709
Matrix coefficients : BT.709

Audio #1
ID : 2
Format : AC-3
Format/Info : Audio Coding 3
Mode extension : CM (complete main)
Format settings, Endianness : Big
Codec ID : A_AC3
Duration : 42mn 56s
Bit rate mode : Constant
Bit rate : 192 Kbps
Channel(s) : 2 channels
Channel positions : Front: L R
Sampling rate : 48.0 KHz
Frame rate : 31.250 fps (1536 spf)
Compression mode : Lossy
Stream size : 59.0 MiB (4%)
Title : 1+1
Language : Ukrainian
Default : Yes
Forced : No

Audio #2
ID : 3
Format : AC-3
Format/Info : Audio Coding 3
Mode extension : CM (complete main)
Format settings, Endianness : Big
Codec ID : A_AC3
Duration : 42mn 56s
Bit rate mode : Constant
Bit rate : 384 Kbps
Channel(s) : 6 channels
Channel positions : Front: L C R, Side: L R, LFE
Sampling rate : 48.0 KHz
Frame rate : 31.250 fps (1536 spf)
Compression mode : Lossy
Stream size : 118 MiB (8%)
Language : English
Default : No
Forced : No

Text
ID : 4
Format : UTF-8
Codec ID : S_TEXT/UTF8
Codec ID/Info : UTF-8 Plain Text
Language : English
Default : No
Forced : No
Скріншоти
Джерело: Ex.ua (SgBILko)
Особиста оцінка: 7 - моїй подрузі не сподобалося


Бронзовий реліз (на рейтинг впливає 75% завантаженого)
 Трекер:    Зареєстрований   

Завантажити / скачати серіал українською



відео для новачків



 Зареєстрований:   2016-06-05 19:03
 Розмір:   13.49 GB 
 Оцінка серіалу:   9.6/10 (Голосів: 5)
   
don pedro 
Попереджень: 1
Попереджень: 1 


З нами з: 29.06.11
Востаннє: 28.11.20
Повідомлень: 18190

2016-06-06 08:43  
Усім поціновувачам (-кам) старого серіалу "Усі жінки - відьми" ("Зачаровані") - вам сюди!
drakon87 
Відео Гуртом - фільмокрай
Відео Гуртом - фільмокрай


З нами з: 03.08.08
Востаннє: 28.11.20
Повідомлень: 1208

2016-06-06 15:37  
Мені от цікаво, а ТЕТ подужав лише один сезон з 2-х ? Хто знає?
Anonymous 







2016-06-06 15:44  
На жаль, показали лише один сезон. Зараз в той же час йде повтор "Та, що говорить з привидами", а це надовго, тож найближчим часом очікувати на другий сезон, думаю, не варто.
[email protected] 
Свій


З нами з: 27.02.13
Востаннє: 22.11.20
Повідомлень: 101

2016-07-22 08:28  
От реально, невже хтось старше 18 таке дивиться?))
McNiL 
Частий відвідувач


З нами з: 01.02.13
Востаннє: 20.11.20
Повідомлень: 30

2016-12-07 03:17  
[email protected]
Уяви собi, i таких багато Happy

don pedro 
Попереджень: 1
Попереджень: 1 


З нами з: 29.06.11
Востаннє: 28.11.20
Повідомлень: 18190

2016-12-07 17:14  
[email protected]
Вам не подобаються серіали про сексі-відьмочок?!

mjagenka 
Новенький


З нами з: 14.02.15
Востаннє: 03.10.20
Повідомлень: 3

2017-08-19 22:17  
Коли чекати другий сезон українською?
Доречі, мені більше 18 і мені подобається Wink (1)

Anonymous 







2017-08-20 08:43  
mjagenka написано:
Коли чекати другий сезон українською?

Від ТЕТ щодо другого сезону поки нічого не чути Sad (1).
Спитайте краще на їхній сторінці у facebook, хай бачать, що народу цікаво продовження.

Kiara 
Свій


З нами з: 18.08.10
Востаннє: 15.10.20
Повідомлень: 135

2019-05-27 19:44  
Народ, роздайте хтось! Швидкість паршива.. навіть черепаха швидше повзає! третій день по пів Мб в секунду.. то просто слів нема..

Буду вдячна, якщо хтось підключиться і роздасть при хорошій швидкості.

Ваш часовий пояс: GMT + 2 Години

Нова тема   Відповісти