Абан і Хоршід / Aban and Khorshid (2014) Rip 720p Fa | Sub Ukr/Eng

Нові коментарі

Нова тема   Відповісти
Останній раз роздавалося legos25 (2016-10-14)
Автор Повідомлення
legos25 
Відео Гуртом - запис з ТБ
Відео Гуртом - запис з ТБ


З нами з: 02.02.10
Востаннє: 23.09.20
Повідомлень: 1336

2016-05-31 13:00  
Абан і Хоршід / Aban and Khorshid (2014) Rip 720p Fa | Sub Ukr/Eng

Абан і Хоршід / Aban and Khorshid (2014) Rip 720p Fa | Sub Ukr/Eng


Жанр: короткометражний, драма
Країна: США



Кінокомпанія: Rude Truth, Delirio Films, Come What May Productions
Режисер: Дарвін Серінк
Актори: Moджиян Арія, Боббі Надері та інші
Сюжет:
Трагічна історія кохання двох хлопців, Абана і Хоршіда, які були розлучені один від одного ...


Тривалість: 00:13:04
Якість:
Відео:
кодек:
розмір кадру: 1280 х 720
бітрейт: ~1187 кб/с

Аудіо:
мова: перська (фарсі)
переклад: оригінал
кодек: 2.0
бітрейт: 192 кб/с

Субтитри: #1
мова: українська
тип: програмні (м'які)
формат: *.srt

Субтитри:
мова: англійська
тип: вбудовані (жорсткі)
Скріншоти



Info

Format : MPEG-4
Format profile : Base Media / Version 2
Codec ID : mp42
File size : 129 MiB
Duration : 13mn 4s
Overall bit rate : 1 382 Kbps
Encoded date : UTC 2015-12-07 15:17:07
Tagged date : UTC 2015-12-07 15:17:07
gsst : 0
gstd : 784880
Video #1
ID : 1
Format : AVC
Format/Info : Advanced Video Codec
Format profile : [email protected]
Format settings, CABAC : Yes
Format settings, ReFrames : 1 frame
Codec ID : avc1
Codec ID/Info : Advanced Video Coding
Duration : 13mn 4s
Bit rate mode : Variable
Bit rate : 1 187 Kbps
Maximum bit rate : 3 100 Kbps
Width : 1 280 pixels
Height : 720 pixels
Display aspect ratio : 16:9
Frame rate mode : Constant
Frame rate : 23.976 fps
Color space : YUV
Chroma subsampling : 4:2:0
Bit depth : 8 bits
Scan type : Progressive
Bits/(Pixel*Frame) : 0.054
Stream size : 111 MiB (86%)
Tagged date : UTC 2015-12-07 15:17:14
Audio #2
ID : 2
Format :
Format/Info : Advanced Audio Codec
Format version : Version 4
Format profile : LC
Format settings, SBR : No
Codec ID : 40
Duration : 13mn 4s
Bit rate mode : Variable
Bit rate : 192 Kbps
Maximum bit rate : 201 Kbps
Channel(s) : 2 channels
Channel positions : Front: L R
Sampling rate : 44.1 KHz
Stream size : 18.0 MiB (14%)
Title : IsoMedia File Produced by Google, 5-11-2011
Encoded date : UTC 2015-12-07 15:17:11
Tagged date : UTC 2015-12-07 15:17:14
Джерело: Moviesubtitles
Особиста оцінка: 0 - не дивився


Золотий реліз (завантажене не впливає на рейтинг)
 Трекер:    Зареєстрований   

Завантажити / скачати фільм українською



відео для новачків



 Зареєстрований:   2016-05-31 13:00
 Розмір:   129 MB 
 Оцінка фільму:   6.4/10 (Голосів: 5)
   
dniprodd 
Поважний учасник


З нами з: 31.10.09
Востаннє: 24.09.20
Повідомлень: 205

2016-05-31 14:03  
delete
mazafaza 
Свій


З нами з: 02.01.15
Востаннє: 09.01.18
Повідомлень: 125

2016-06-01 12:11  
Хтось дуже хворий?
Konfucius 
Управління
Управління


З нами з: 30.09.07
Востаннє: 24.09.20
Повідомлень: 5216

2016-06-02 02:29  
Добавте Info.
Ваш часовий пояс: GMT + 2 Години

Нова тема   Відповісти