В'язень (Сезон 1) / The Prisoner (Season 1) (1967) AVC Eng | sub Ukr

Нові коментарі

Нова тема   Відповісти
Автор Повідомлення
ssv310 
Свій


З нами з: 14.08.14
Востаннє: 05.12.20
Повідомлень: 90

2016-05-28 12:44  
В'язень (Сезон 1) / The Prisoner (Season 1) (1967) AVC Eng | sub Ukr

В'язень (Сезон 1) / The Prisoner (Season 1) (1967) AVC Eng | sub Ukr


Жанр: пригодницький
Країна: Велика Британія



Кінокомпанія: ITV
Режисер: Дон Чеффі, Пет Джексон, Патрік Мак-Ґуен, інші
Актори: Патрік Мак-Ґуен, Анджело Маскат, інші

Сюжет:
Секретного агента, який подав у відставку, викрадають. Він потрапляє до дивовижної тюрми, що виглядає як ідилічне селище. Його тюремники вимагають інформацію. Він намагається втекти.


Тривалість: 50 хв. серія (всього серій: 17)
Список серій

01. Прибуття
02. Передзвін Біг Бена
03. А, В і С
04. Свобода для всіх
05. Шизофренік
06. Генерал
07. З поверненням!
08. Танок мерців
09. Шах і мат
10. Молотом по ковадлу
11. Це ваш похорон
12. Зміна думки
13. Не відмовляйся від мене, люба
14. Життя в Гармонії
15. Дівчина, яка була Смертю
16. Одного разу
17. Вихід зі строю
Якість:
Відео:
кодек:
розмір кадру: 720 х 576
бітрейт: 2000 кб/с

Аудіо:
мова: англійська
переклад: оригінал
кодек: 2.0
бітрейт: 448 кб/с

Субтитри:
мова: українська
тип: програмні (м'які)
формат: *.srt
Info
Код:
General
Unique ID                   : 223403927676366146083339300013707513408 (0xA8120809DE08D7619E7CC6255FFE4E40)
Complete name               : В'язень.01.Прибуття.
Format                      :
Format version              : Version 4
File size                   : 893 MiB
Duration                    : 50 min 58 s
Overall bit rate            : 2 448 kb/s
Encoded date                : UTC 2016-06-03 08:42:42
Writing application         : v9.2.0 ('Photograph') 64bit
Writing library             : libebml v1.3.3 + v1.4.4 / Lavf55.19.104

Video
ID                          : 2
Format                      : AVC
Format/Info                 : Advanced Video Codec
Format profile              : [email protected]
Format settings             : 2 Ref Frames
Format settings, CABAC      : No
Format settings, ReFrames   : 2 frames
Codec ID                    : V_MPEG4/ISO/AVC
Duration                    : 50 min 58 s
Bit rate                    : 2 000 kb/s
Width                       : 720 pixels
Height                      : 576 pixels
Display aspect ratio        : 4:3
Frame rate mode             : Constant
Frame rate                  : 24.000 FPS
Color space                 : YUV
Chroma subsampling          : 4:2:0
Bit depth                   : 8 bits
Scan type                   : Progressive
Bits/(Pixel*Frame)          : 0.201
Stream size                 : 729 MiB (82%)
Writing library             : core 140 r2377 1ca7bb9
Encoding settings           : cabac=0 / ref=2 / deblock=1:0:0 / analyse=0x1:0x111 / me=umh / subme=6 / psy=1 / psy_rd=1.00:0.00 / mixed_ref=1 / me_range=16 / chroma_me=1 / trellis=0 / 8x8dct=0 / cqm=0 / deadzone=21,11 / fast_pskip=1 / chroma_qp_offset=-2 / threads=6 / lookahead_threads=1 / sliced_threads=0 / nr=0 / decimate=1 / interlaced=0 / bluray_compat=0 / constrained_intra=0 / bframes=0 / weightp=0 / keyint=250 / keyint_min=24 / scenecut=40 / intra_refresh=0 / rc_lookahead=40 / rc=abr / mbtree=1 / bitrate=2000 / ratetol=1.0 / qcomp=0.60 / qpmin=0 / qpmax=69 / qpstep=4 / ip_ratio=1.40 / aq=1:1.00
Language                    : English
Default                     : Yes
Forced                      : No

Audio
ID                          : 3
Format                      : AC-3
Format/Info                 : Audio Coding 3
Commercial name             : Dolby Digital
Codec ID                    : A_AC3
Duration                    : 50 min 57 s
Bit rate mode               : Constant
Bit rate                    : 448 kb/s
Channel(s)                  : 6 channels
Channel layout              : L R C LFE Ls Rs
Sampling rate               : 48.0 kHz
Frame rate                  : 31.250 FPS (1536 SPF)
Bit depth                   : 16 bits
Compression mode            : Lossy
Stream size                 : 163 MiB (18%)
Language                    : English
Service kind                : Complete Main
Default                     : Yes
Forced                      : No

Text
ID                          : 1
Format                      : UTF-8
Codec ID                    : S_TEXT/UTF8
Codec ID/Info               : UTF-8 Plain Text
Duration                    : 48 min 19 s
Bit rate                    : 73 b/s
Count of elements           : 435
Stream size                 : 26.0 KiB (0%)
Default                     : Yes
Forced                      : No

Menu
00:00:00.000                : :Chapter 1
00:02:16.541                : :Chapter 2
00:06:20.958                : :Chapter 3
00:09:29.541                : :Chapter 4
00:15:30.208                : :Chapter 5
00:20:54.208                : :Chapter 6
00:28:05.833                : :Chapter 7
00:36:16.583                : :Chapter 8
00:42:30.583                : :Chapter 9
00:45:30.166                : :Chapter 10
Скріншоти


Джерело: Відео з англомовних трекерів, власний переклад субтитрів.

Особиста оцінка: 10 - без зайвих вагань рекомендую всім!


Золотий реліз (завантажене не впливає на рейтинг)
 Трекер:    Зареєстрований   

Завантажити / скачати серіал українською



відео для новачків



 Зареєстрований:   2016-07-03 08:44
 Розмір:   14.72 GB 
 Оцінка серіалу:   9/10 (Голосів: 4)
   
ssv310 
Свій


З нами з: 14.08.14
Востаннє: 05.12.20
Повідомлень: 90

2016-06-20 07:11  
Додав наступні серії:
08. Танок мерців
09. Шах і мат
10. Молотом по ковадлу
11. Це ваш похорон
12. Зміна думки
13. Не відмовляйся від мене, люба
14. Життя в Гармонії
15. Дівчина, яка була Смертю

Contesina 
Свій


З нами з: 06.12.09
Востаннє: 09.10.20
Повідомлень: 86

2016-06-25 22:09  
ssv310
ви круті.

ssv310 
Свій


З нами з: 14.08.14
Востаннє: 05.12.20
Повідомлень: 90

2016-07-03 08:49  
Додав останні дві серії:
16. Одного разу
17. Вихід зі строю

Milner 
Поважний учасник


З нами з: 19.07.08
Востаннє: 04.12.20
Повідомлень: 170

2016-07-11 11:27  
дивився ремейк 2009 року, тоді мене дуже бомбило від кінцівки серіалу....тепер спробую глянути оригінал)
ssv310 
Свій


З нами з: 14.08.14
Востаннє: 05.12.20
Повідомлень: 90

2016-07-11 12:06  
Я ремейк не дивився, тож порівняти не можу. Але кінцівка дещо своєрідна, свого часу вона викликала обурення багатьох глядачів.
Існує ще аудіо-ремейк, але його перекладати, напевно, марно.

Bobu 
Частий відвідувач


З нами з: 17.06.19
Востаннє: 01.12.20
Повідомлень: 26

2020-09-21 21:07  
В'язень.06.Генерал. 8:40
І знову мова про 72.4% людей!

А ще був фільм Teatr.TV-J.Machulski-19.Poludnik.avi
І як вони вгадали про 73%!? (на початку)
А потім ще й про 72% на 45:55...

Дивно все це якось.
Якось аж занадто переплітається з нашим "реал." життям. Sad (1)

don pedro 
Попереджень: 1
Попереджень: 1 


З нами з: 29.06.11
Востаннє: 05.12.20
Повідомлень: 18262

2020-09-21 21:08  
Bobu
Життя наслідує мистецтво.

Bobu 
Частий відвідувач


З нами з: 17.06.19
Востаннє: 01.12.20
Повідомлень: 26

2020-11-25 19:12  
don pedro

Але дивує саме точність до відсотка!
Це вже не просто наслідування. Це занадто навіть для теорії змови. Не можна ж так палитися... Happy

І до серіалу.
Цікава, до речі, англ.мова. Нині такої вже нема. "Сіріослі". Happy

Але найбільше вражають чувачки, що катаються на карусельці в центрі керування.
І не так дивно, що катаються (а чом би й ні...), а те, що затуляють керівництву екран спостереження.



[img][/img][img][/img]

Ваш часовий пояс: GMT + 2 Години

Нова тема   Відповісти