Кабанері Залізної фортеці /甲鉄城のカバネリ (Koutetsujou no Kabaneri) / Kabaneri of the Iron Fortress (2016) 1080p Ukr/Jap

Нові коментарі

Нова тема   Відповісти
Автор Повідомлення
Patlati Продакшнз 
Частий відвідувач


З нами з: 09.01.12
Востаннє: 16.03.17
Повідомлень: 35

2016-05-27 02:04  
Кабанері Залізної фортеці /甲鉄城のカバネリ (Koutetsujou no Kabaneri) / Kabaneri of the Iron Fortress (2016) 1080p Ukr/Jap

Кабанері Залізної фортеці /甲鉄城のカバネリ (Koutetsujou no Kabaneri) / Kabaneri of the Iron Fortress (2016) 1080p Ukr/Jap


Жанр: фантастика, паропанк, пригоди
Країна: Японія



7.79 (250 голосів)

Кінокомпанія: Wit Studio
Режисер: Аракі Тецуро
Сюжет:
Країну Хіномото, що вступила в еру індустріалізації, охопив невідомий небезпечний вірус. Він перетворює людей на "кабане" - немертвих і фактично незнищенних істот, наділених неймовірною силою і люттю. Щоб боронитися від кабане, люди зачинилися в містах-фортецях, сполучення між якими здійснюється за допомогою броньованих потягів. Головну зброю проти кабане - парові рушниці - має право використовувати виключно привілейований клас воїнів-буші. Однак, їхніх зусиль вистачає лиш для тимчасового стримування кабане.
Молодий інженер на ім'я Ікома мріє битися з кабане і потай розробляє зброю, здатну пробити їхній міцний захист. Саме коли він завершує свій випробувальний екземпляр, на потязі до міста прибувають незвичні гості…


Тривалість: 1 серія: 22:50 (цілком серій: (01 з 12))
Перелік серій
01 "Наляканий трупак"
Якість:
Відео:
кодек:
розмір кадру: 1280 х 720
бітрейт: 3 149 кб/с

Аудіо # 1:
мова: українська
переклад: багатоголосий закадровий (Patlati Продакшнз)
кодек: 2.0
бітрейт: 384 кб/с

Аудіо # 2:
мова: японська
переклад: оригінал
кодек: 2.0
бітрейт: 384 кб/с
Info
General
ID : 1 (0x1)
Complete name : C:\Users\Олександр\Downloads\Макрос\Krbnr_1080_UA[Patlati].m2ts
Format : BDAV
Format/Info : Blu-ray Video
File size : 668 MiB
Duration : 22mn 49s
Overall bit rate mode : Variable
Overall bit rate : 4 090 Kbps
Maximum Overall bit rate : 35.5 Mbps

Video
ID : 4113 (0x1011)
Menu ID : 1 (0x1)
Format : AVC
Format/Info : Advanced Video Codec
Format profile : High [email protected]
Format settings, CABAC : Yes
Format settings, ReFrames : 16 frames
Codec ID : 27
Duration : 22mn 49s
Bit rate mode : Variable
Bit rate : 3 149 Kbps
Maximum bit rate : 40.0 Mbps
Width : 1 280 pixels
Height : 720 pixels
Display aspect ratio : 16:9
Frame rate : 23.976 (24000/1001) fps
Color space : YUV
Chroma subsampling : 4:2:0
Bit depth : 10 bits
Scan type : Progressive
Bits/(Pixel*Frame) : 0.143
Stream size : 514 MiB (77%)

Audio #1
ID : 4352 (0x1100)
Menu ID : 1 (0x1)
Format : AC-3
Format/Info : Audio Coding 3
Mode extension : CM (complete main)
Format settings, Endianness : Big
Codec ID : 129
Duration : 22mn 49s
Bit rate mode : Constant
Bit rate : 384 Kbps
Channel(s) : 2 channels
Channel positions : Front: L R
Sampling rate : 48.0 KHz
Frame rate : 31.250 fps (1536 spf)
Compression mode : Lossy
Stream size : 62.7 MiB (9%)
Language : Ukrainian

Audio #2
ID : 4353 (0x1101)
Menu ID : 1 (0x1)
Format : AC-3
Format/Info : Audio Coding 3
Mode extension : CM (complete main)
Format settings, Endianness : Big
Codec ID : 129
Duration : 22mn 49s
Bit rate mode : Constant
Bit rate : 384 Kbps
Channel(s) : 2 channels
Channel positions : Front: L R
Sampling rate : 48.0 KHz
Frame rate : 31.250 fps (1536 spf)
Compression mode : Lossy
Stream size : 62.7 MiB (9%)
Language : Japanese
Скріншоти





Джерело:
Ролі озвучили: Oni, Sancho, Zirko, Ito, Elvi (Patlati Продакшнз)
Переклад: Oni
Постер: Лунсар

Особиста оцінка: 9 - давно не бачив настільки якісне кіно


Авторський реліз (завантажувати можна без реєстрації)
 Трекер:    Зареєстрований   

Завантажити / скачати аніме українською



відео для новачків



 Зареєстрований:   2016-05-27 02:04
 Розмір:   668 MB 
 Оцінка аніме:   7.5/10 (Голосів: 4)
   
Ваш часовий пояс: GMT + 2 Години

Нова тема   Відповісти