Роботи / Robots (2005) 720p Ukr/Eng | Sub Eng/Ger/Spa/Por

Нові коментарі

Нова тема   Відповісти
Автор Повідомлення
Anonymous 







2016-05-23 15:33  
Роботи / Robots (2005) 720p Ukr/Eng | Sub Eng/Ger/Spa/Por

Роботи / Robots (2005) 720p Ukr/Eng | Sub Eng/Ger/Spa/Por

Альтернативні постери

Роботи / Robots (2005) 720p Ukr/Eng | Sub Eng/Ger/Spa/Por



Роботи / Robots (2005) 720p Ukr/Eng | Sub Eng/Ger/Spa/Por


Жанр: анімація, мелодрама, комедія, музичний, пригодницький, сімейний, фантастика
Країна: США



Кінокомпанія: Twentieth Century Fox Animation, Blue Sky Studios
Режисер: Карлос Салдана / Carlos Saldanha, Кріс Ведж / Chris Wedge
Актори: Юен МакҐреґор / Ewan McGregor, Геллі Беррі / Halle Berry, Джим Бродбент / Jim Broadbent, Мел Брукс / Mel Brooks, Дженніфер Кулідж / Jennifer Coolidge, Пол Джіаматті / Paul Giamatti, Ден Гедайа / Dan Hedaya, Наташа Ліонн / Natasha Lyonne, Стенлі Тучі / Stanley Tucci, Робін Вільямс / Robin Williams, Пола Абдул / Paula Abdul, Джеймс Ерл Джонс / James Earl Jones та інші

Сюжет:
Вперше вам відкриється повністю вигаданий світ, населений виключно роботами. Як і в світі людей у них є своя соціальна ієрархія, свої герої та вигнанці. Молодий геніальний винахідник Родні мріє зробити світ роботів кращим і зустрітися зі своїм кумиром - ґуру винахідників Біґ Ботом. А ще йому дуже подобається одна молоденька робот Каппі. Але на шляху всіх його планів стоїть місцевий олігарх Біг Велд, що очолив корпорацію Біґ Бота і намагається здобути владу над всіма роботами, контролюючи випуск запчастин.


Рейтинг MPAA: PG - рекомендується присутність батьків
Вікова категорія: 6+

Тривалість: 01:29:47
Якість: 720p
Відео:
кодек:
розмір кадру: 1280 х 694
бітрейт: 5980 Кбіт/с

Аудіо # 1:
мова: українська
переклад: двоголосий закадровий
ролі озвучили: Андрій Твердак і Юлія Перенчук
кодек: 2.0
бітрейт: 192 Кбіт/с
примітки:
  1. Зведено з свіжого якісного запису, на відміну від попередніх релізів, де присутній ефект "зламаного піаніно" чи переробок HDClub з того ж старого джерела
  2. З цією ж озвучкою транслювався по ТЕТ
Спектр
Аудіо # 2:
мова: англійська
переклад: оригінал
кодек: 5.1
бітрейт: 448 Кбіт/с

Субтитри #1-5:
мова: англійська, німецька (форсовані, повні), іспанська, португальська
тип: програмні (м'які)
формат: *.srt
Info
Код:
General
Complete name               : Robots (2005) [Ukr,Eng sub.Eng,Multi] 720p [Hurtom & HDClub].
Format                      :
Format version              : Version 4 / Version 2
File size                   : 4.14 GiB
Duration                    : 1h 29mn
Overall bit rate            : 6 607 Kbps
Movie name                  : Роботи / Robots (2005) [Ukr,Eng sub.Eng,Multi] 720p [Hurtom & HDClub] by igor911
Encoded date                : UTC 2016-05-29 11:40:04
Writing application         : mkvmerge v9.2.0 ('Photograph') 64bit
Writing library             : libebml v1.3.3 + libmatroska v1.4.4
Cover                       : Yes
Attachments                 : cover.jpg

Video
ID                          : 1
Format                      : AVC
Format/Info                 : Advanced Video Codec
Format profile              : [email protected]
Format settings, CABAC      : Yes
Format settings, ReFrames   : 9 frames
Codec ID                    : V_MPEG4/ISO/AVC
Duration                    : 1h 29mn
Bit rate                    : 5 980 Kbps
Width                       : 1 280 pixels
Height                      : 694 pixels
Display aspect ratio        : 1.85:1
Frame rate mode             : Constant
Frame rate                  : 23.976 fps
Color space                 : YUV
Chroma subsampling          : 4:2:0
Bit depth                   : 8 bits
Scan type                   : Progressive
Bits/(Pixel*Frame)          : 0.281
Stream size                 : 3.74 GiB (90%)
Title                       : Роботи / Robots (2005) 720p [HDClub]
Writing library             : core 88 r1471 1144615
Encoding settings           : cabac=1 / ref=9 / deblock=1:1:1 / analyse=0x3:0x133 / me=esa / subme=9 / psy=1 / psy_rd=1.00:0.20 / mixed_ref=1 / me_range=24 / chroma_me=1 / trellis=2 / 8x8dct=1 / cqm=0 / deadzone=21,11 / fast_pskip=0 / chroma_qp_offset=-3 / threads=12 / sliced_threads=0 / nr=0 / decimate=0 / mbaff=0 / constrained_intra=0 / bframes=12 / b_pyramid=2 / b_adapt=2 / b_bias=0 / direct=3 / wpredb=1 / wpredp=2 / keyint=240 / keyint_min=24 / scenecut=40 / intra_refresh=0 / rc_lookahead=60 / rc=cbr / mbtree=1 / bitrate=5980 / ratetol=1.0 / qcomp=0.80 / qpmin=10 / qpmax=51 / qpstep=4 / vbv_maxrate=40000 / vbv_bufsize=30000 / ip_ratio=1.40 / aq=2:1.00
Language                    : English
Default                     : Yes
Forced                      : No

Audio #1
ID                          : 2
Format                      : AC-3
Format/Info                 : Audio Coding 3
Mode extension              : CM (complete main)
Format settings, Endianness : Big
Codec ID                    : A_AC3
Duration                    : 1h 29mn
Bit rate mode               : Constant
Bit rate                    : 192 Kbps
Channel(s)                  : 2 channels
Channel positions           : Front: L R
Sampling rate               : 48.0 KHz
Frame rate                  : 31.250 fps (1536 spf)
Compression mode            : Lossy
Stream size                 : 123 MiB (3%)
Title                       : DVO [1+1] 2.0 192 kbps [Hurtom-taraskill1,SalCom]
Language                    : Ukrainian
Default                     : Yes
Forced                      : No

Audio #2
ID                          : 3
Format                      : AC-3
Format/Info                 : Audio Coding 3
Mode extension              : CM (complete main)
Format settings, Endianness : Big
Codec ID                    : A_AC3
Duration                    : 1h 29mn
Bit rate mode               : Constant
Bit rate                    : 448 Kbps
Channel(s)                  : 6 channels
Channel positions           : Front: L C R, Side: L R, LFE
Sampling rate               : 48.0 KHz
Frame rate                  : 31.250 fps (1536 spf)
Compression mode            : Lossy
Stream size                 : 288 MiB (7%)
Title                       : Original, 5.1 448 kbps
Language                    : English
Default                     : No
Forced                      : No

Text #1
ID                          : 4
Format                      : UTF-8
Codec ID                    : S_TEXT/UTF8
Codec ID/Info               : UTF-8 Plain Text
Duration                    : 1h 22mn
Bit rate                    : 58 bps
Count of elements           : 1029
Stream size                 : 35.5 KiB (0%)
Language                    : English
Default                     : No
Forced                      : No

Text #2
ID                          : 5
Format                      : UTF-8
Codec ID                    : S_TEXT/UTF8
Codec ID/Info               : UTF-8 Plain Text
Duration                    : 1h 28mn
Bit rate                    : 1 bps
Count of elements           : 27
Stream size                 : 694 Bytes (0%)
Title                       : Forced
Language                    : German
Default                     : No
Forced                      : No

Text #3
ID                          : 6
Format                      : UTF-8
Codec ID                    : S_TEXT/UTF8
Codec ID/Info               : UTF-8 Plain Text
Duration                    : 1h 29mn
Bit rate                    : 62 bps
Count of elements           : 1041
Stream size                 : 40.7 KiB (0%)
Language                    : German
Default                     : No
Forced                      : No

Text #4
ID                          : 7
Format                      : UTF-8
Codec ID                    : S_TEXT/UTF8
Codec ID/Info               : UTF-8 Plain Text
Duration                    : 1h 29mn
Bit rate                    : 52 bps
Count of elements           : 1045
Stream size                 : 34.3 KiB (0%)
Language                    : Spanish
Default                     : No
Forced                      : No

Text #5
ID                          : 8
Format                      : UTF-8
Codec ID                    : S_TEXT/UTF8
Codec ID/Info               : UTF-8 Plain Text
Duration                    : 1h 29mn
Bit rate                    : 53 bps
Count of elements           : 1039
Stream size                 : 35.0 KiB (0%)
Language                    : Portuguese
Default                     : No
Forced                      : No

Menu
00:00:00.000                : :00:00:00.000
00:02:03.540                : :00:02:03.540
00:04:24.139                : :00:04:24.139
00:07:17.312                : :00:07:17.312
00:10:50.984                : :00:10:50.984
00:13:34.397                : :00:13:34.397
00:15:52.827                : :00:15:52.827
00:19:04.894                : :00:19:04.894
00:22:42.611                : :00:22:42.611
00:24:44.191                : :00:24:44.191
00:26:44.394                : :00:26:44.394
00:29:24.513                : :00:29:24.513
00:33:03.773                : :00:33:03.773
00:34:58.346                : :00:34:58.346
00:36:36.444                : :00:36:36.444
00:41:03.336                : :00:41:03.336
00:45:55.044                : :00:45:55.044
00:49:53.199                : :00:49:53.199
00:53:42.344                : :00:53:42.344
00:59:09.004                : :00:59:09.004
01:01:02.993                : :01:01:02.993
01:04:39.876                : :01:04:39.876
01:06:54.761                : :01:06:54.761
01:12:24.632                : :01:12:24.632
01:16:12.902                : :01:16:12.902
01:19:00.235                : :01:19:00.235
01:21:24.213                : :01:21:24.213
01:23:39.765                : :01:23:39.765


Джерела та подяки: &
українська доріжка - taraskill1 - зведення, xslim, SalCom - запис з ТБ; thefir, Ham_R - постери


ЗАЛИШАЙТЕСЬ ЯКОМОГА ДОВШЕ НА РОЗДАЧІ!
СКАЧАВ САМ - ДАЙ СКАЧАТИ ІНШИМ


 Трекер:    Зареєстрований   

Завантажити / скачати мультфільм українською



відео для новачків



 Зареєстрований:   2016-05-29 16:12
 Розмір:   4.14 GB 
 Оцінка мультфільму:   5.7/10 (Голосів: 21)
   
Інші релізи
   Роботи / Robots (2005) taraskill1  12 / 0   1.29 GB   2016-05-29 08:30 
Ваш часовий пояс: GMT + 2 Години

Нова тема   Відповісти