Бумбокс - Люди (EP) (2016) [] | Reggae / Hip-hop

Нові коментарі

Нова тема   Відповісти
Автор Повідомлення
kolpavel 
VIP


З нами з: 04.05.14
Востаннє: 18.01.19
Повідомлень: 1224

2016-05-15 20:39  
Бумбокс - Люди (EP) (2016) [] | Reggae / Hip-hop

Бумбокс - Люди (EP) (2016) [] | Reggae / Hip-hop


Стиль: Reggae, Funk, Hip-hop
Країна, місто: Україна, Київ
Сайти: Офіційний сайт
Видавець: Moon Records (MN 5777-2)
Виконавці:
Андрiй Хливнюк — вокал, тексти
Андрiй "Муха" Самойло — гiтара
Валентин "Валік" Матiюк — DJ
Oлександр Люлякiн — ударнi
Денис Левченко — бас-гiтара
Павло Литвиненко — пiанiно
Jamala - вокал
Pianобой - вокал
Пісні:
    01. Люди - 04:52
    02. Мала - 04:27
    03. Выход - 05:21
    04. Рок-н-рол - 04:51
    05. Злива (feat. Jamala, Pianобой) - 05:50

Тривалість: 00:25:21
Мова: українська (1,2,5) росiйська (3,4)
Аудіо-кодек:
Бітрейт: 978 кб/с
Джерело: трекер
Додаткова інформація:
1 квітня 2016 року відбувся реліз максі-синглу гурту Бумбокс - «Люди». Дев'ять років тому Бумбокс вже випускали сингл - "Тримай", який побив всі рекорди продажів. Це перший запис Бумбокса, в якій група грає в новому складі - до знайомої всім "п'ятірці" приєднався талановитий піаніст Павло Литвиненко, який більше року їздив з групою в якості сесійного музиканта. Максі-сингл "Люди" був записаний в 2014-15 роках в Києві, на студіях "Бобіна" і "З ранку до ночi". Пісні "Вихід", "Люди", "Мала", "Рок-н-рол" записані на студії "Бобіна" саундпродюсером Дмитром "Бобом" Хомулко. До платівки увійшла знаменита пісня «Злива» записана разом з Джамалою та Дмитром Шуровим (Pianoбой). Над оформленням синглу, як і над усім фірмовим стилем, працювала художник і дизайнер Евеліна Яцеленко. В оформленні використані фотографії Соні Плакидюк. Кожен диск максі-синглу містить дві наклейки і ексклюзивний вкладиш з автографом одного з музикантів гурту Бумбокс.
Додаток


Бумбокс - Люди (EP) (2016) [] | Reggae / Hip-hop
Бумбокс - Люди (EP) (2016) [] | Reggae / Hip-hop
Бумбокс - Люди (EP) (2016) [] | Reggae / Hip-hopБумбокс - Люди (EP) (2016) [] | Reggae / Hip-hopБумбокс - Люди (EP) (2016) [] | Reggae / Hip-hop Бумбокс - Люди (EP) (2016) [] | Reggae / Hip-hopБумбокс - Люди (EP) (2016) [] | Reggae / Hip-hop Бумбокс - Люди (EP) (2016) [] | Reggae / Hip-hop Бумбокс - Люди (EP) (2016) [] | Reggae / Hip-hop
EAC
Exact Audio Copy V1.1 from 23. June 2015

Отчёт EAC об извлечении, выполненном 15. мая 2016, 12:23

Бумбокс / Люди

Дисковод: TSSTcorpCDDVDW TS-L633J Adapter: 1 ID: 0

Режим чтения : Достоверность
Использование точного потока : Да
Отключение кэша аудио : Да
Использование указателей C2 : Нет

Коррекция смещения при чтении : 6
Способность читать области Lead-in и Lead-out : Нет
Заполнение пропущенных сэмплов тишиной : Да
Удаление блоков с тишиной в начале и конце : Нет
При вычислениях CRC использовались нулевые сэмплы : Да
Интерфейс : Встроенный Win32-интерфейс для Win NT/2000

Выходной формат : Пользовательский кодировщик
Выбранный битрейт : 768 kBit/s
Качество : Высокий
Добавление ID3-тега : Нет
Утилита сжатия : C:\Program Files\Exact Audio Copy\\.exe
Дополнительные параметры : -V -8 -T "Date=%year%" -T "Genre=%genre%" %source%

TOC извлечённого CD

Трек | Старт | Длительность | Начальный сектор | Конечный сектор
---------------------------------------------------------------------
1 | 0:00.00 | 4:52.04 | 0 | 21903
2 | 4:52.04 | 4:27.40 | 21904 | 41968
3 | 9:19.44 | 5:20.74 | 41969 | 66042
4 | 14:40.43 | 4:50.69 | 66043 | 87861
5 | 19:31.37 | 5:49.35 | 87862 | 114071

Характеристики диапазона извлечения и сообщения об ошибках

Выбранный диапазон

Имя файла D:\Download\Бумбокс - Люди {Flack}(2016)\Бумбокс - Люди.wav

Пиковый уровень 100.0 %
Скорость извлечения 2.3 X
Качество диапазона 100.0 %
CRC теста CA995C5C
CRC копии CA995C5C
Копирование... OK

Ошибок не произошло

Конец отчёта

==== Контрольная сумма отчёта F9CD4B93A3C8844B55609FF20EADCE6A2EBD5F941CA8F4D92F6169FB4070EDE6 ====
(.CUE)
REM GENRE Hip-Hop
REM DATE 2016
REM DISCID 3B05F005
REM COMMENT "ExactAudioCopy v1.1"
PERFORMER "Бумбокс"
TITLE "Люди"
FILE "Бумбокс - Люди." WAVE
TRACK 01 AUDIO
TITLE "Люди"
PERFORMER "Бумбокс"
INDEX 01 00:00:00
TRACK 02 AUDIO
TITLE "Мала"
PERFORMER "Бумбокс"
INDEX 01 04:52:04
TRACK 03 AUDIO
TITLE "Выход"
PERFORMER "Бумбокс"
INDEX 01 09:19:44
TRACK 04 AUDIO
TITLE "Рок-н-рол "
PERFORMER "Бумбокс"
INDEX 01 14:40:43
TRACK 05 AUDIO
TITLE "Злива"
PERFORMER "Бумбокс"
INDEX 01 19:31:37


Якщо Ви справді бажаєте підтримати українське - після прослуховування, якщо музика вам сподобалась, придбайте ліцензійний диск. Підтримаймо вітчизняних виконавців!


Фріліч (завантажене не впливає на рейтинг)
 Трекер:    Зареєстрований   

Завантажити / скачати українську музику



відео для новачків



 Зареєстрований:   2016-05-15 20:39
 Розмір:   178 MB 
 Оцінка музики:   9.3/10 (Голосів: 26)
   
kolpavel 
VIP


З нами з: 04.05.14
Востаннє: 18.01.19
Повідомлень: 1224

2016-05-15 20:40  
Ваш часовий пояс: GMT + 2 Години

Нова тема   Відповісти