Школа під нападом / Nerawareta Gakuen / Haunted Academy (2012) 1080р Ukr/Jap | Sub Ukr

Нові коментарі

Нова тема   Відповісти
Автор Повідомлення
BMK12 
Відео Гуртом - підтримка та поширення
Відео Гуртом - підтримка та поширення


З нами з: 13.04.09
Востаннє: 19.08.17
Повідомлень: 3110

2016-05-13 19:26  
Школа під нападом / Nerawareta Gakuen / Haunted Academy (2012) 1080р Ukr/Jap | Sub Ukr

Школа під нападом / Nerawareta Gakuen / Haunted Academy (2012) 1080р Ukr/Jap | Sub Ukr


Жанр: школа, фантастика, романтика, драма
Країна: Японія



6.91 (798 голосів)

Кінокомпанія: Sunrise
Режисер: Рьооске Накамура
Ролі озвучують: Кана Ханазава, Дайсуке Оно, Юутаро Хонджьо, Маюу Ватанабе та ін.

Сюжет:
У середній школі в Камакурі починається новий навчальний рік. До 8 класу переводиться новенький - Кьоґоку Рьоічі. Він красивий, харизматичний, розумний, тому швидко завойовує популярність серед учнів. Але в нього є таємниця. Використовуючи свої надприродні здібності, він хоче взяти школу під контроль. Усе йде за планом, однак на шляху Кьоґоку стає один з учнів - Секі Кенджі. Схоже битва за свободу школи і її учнів неминуча, однак... Може насправді все не так, як здається?

Тривалість: 01:46:31
Якість: 1080p
Відео:
кодек: 8bit
розмір кадру: 1920 х 1080
бітрейт: ~18400 кб/с

Аудіо # 1:
мова: українська
переклад: двоголосий закадровий
кодек: FLAC
бітрейт: 1131 кб/с

Аудіо # 2:
мова: японська
переклад: оригінал
кодек: FLAC
бітрейт: 656 кб/с

Субтитри:
мова: українські (тільки надписи)
тип: програмні (м'які)
формат: *.ass

Субтитри:
мова: українські (повні)
тип: програмні (м'які)
формат: *.ass
Info
General
Unique ID : 194314484882421549816338763095509702317 (0x922F9BC712077E4EA376651FA3BE16AD)
Complete name : E:\Торенти\[Робота Голосом] Школа під нападом (Nerawareta Gakuen) [ 1920x1080 FLAC] [UKR, JAP+SUB].
Format :
Format version : Version 4 / Version 2
File size : 15.0 GiB
Duration : 1h 46mn
Overall bit rate mode : Variable
Overall bit rate : 20.2 Mbps
Encoded date : UTC 2016-05-11 13:51:35
Writing application : mkvmerge v8.2.0 ('World of Adventure') 64bit
Writing library : libebml v1.3.1 + libmatroska v1.4.2
Attachements : AleksandraC_vintage_Ukr.ttf / BAARS.ttf / BarnaulGrotesk Bold.ttf / lcchalk.ttf / RussianRail G Pro Regular.ttf / Sansation_Ukr.ttf / tahoma.ttf

Video
ID : 1
Format : AVC
Format/Info : Advanced Video Codec
Format profile : [email protected]
Format settings, CABAC : Yes
Format settings, ReFrames : 4 frames
Codec ID : V_MPEG4/ISO/AVC
Duration : 1h 46mn
Bit rate : 18.4 Mbps
Width : 1 920 pixels
Height : 1 080 pixels
Display aspect ratio : 16:9
Frame rate mode : Constant
Frame rate : 23.976 (24000/1001) fps
Color space : YUV
Chroma subsampling : 4:2:0
Bit depth : 8 bits
Scan type : Progressive
Bits/(Pixel*Frame) : 0.370
Stream size : 13.7 GiB (91%)
Writing library : core 138
Encoding settings : opencl=1 / cabac=1 / ref=4 / deblock=1:-2:-2 / analyse=0x3:0x113 / me=umh / subme=9 / psy=1 / psy_rd=0.70:0.00 / mixed_ref=0 / me_range=32 / chroma_me=1 / trellis=2 / 8x8dct=1 / cqm=0 / deadzone=21,11 / fast_pskip=1 / chroma_qp_offset=-2 / threads=8 / lookahead_threads=1 / sliced_threads=0 / nr=0 / decimate=1 / interlaced=0 / bluray_compat=0 / constrained_intra=0 / bframes=9 / b_pyramid=2 / b_adapt=2 / b_bias=0 / direct=3 / weightb=1 / open_gop=0 / weightp=2 / keyint=250 / keyint_min=23 / scenecut=40 / intra_refresh=0 / rc_lookahead=40 / rc=crf / mbtree=1 / crf=16.0 / qcomp=0.70 / qpmin=10 / qpmax=20 / qpstep=4 / ip_ratio=1.40 / aq=1:1.00
Default : Yes
Forced : No

Audio #1
ID : 2
Format : FLAC
Format/Info : Free Lossless Audio Codec
Codec ID : A_FLAC
Duration : 1h 46mn
Bit rate mode : Variable
Bit rate : 1 131 Kbps
Channel(s) : 6 channels
Channel positions : Front: L C R, Side: L R, LFE
Sampling rate : 48.0 KHz
Frame rate : 11.719 fps (4096 spf)
Bit depth : 16 bits
Stream size : 862 MiB (6%)
Title : Українська
Writing library : libFLAC 1.3.1 (UTC 2014-11-25)
Language : Ukrainian
Default : Yes
Forced : No

Audio #2
ID : 3
Format : FLAC
Format/Info : Free Lossless Audio Codec
Codec ID : A_FLAC
Duration : 1h 46mn
Bit rate mode : Variable
Bit rate : 656 Kbps
Channel(s) : 2 channels
Channel positions : Front: L R
Sampling rate : 48.0 KHz
Frame rate : 10.417 fps (4608 spf)
Bit depth : 16 bits
Stream size : 500 MiB (3%)
Title : Японська
Writing library : Lavf54.29.104
Language : Japanese
Default : No
Forced : No

Text #1
ID : 4
Format : ASS
Codec ID : S_TEXT/ASS
Codec ID/Info : Advanced Sub Station Alpha
Duration : 1h 44mn
Bit rate : 107 bps
Count of elements : 858
Compression mode : Lossless
Stream size : 82.1 KiB (0%)
Title : Українські (написи)
Language : Ukrainian
Default : Yes
Forced : No

Text #2
ID : 5
Format : ASS
Codec ID : S_TEXT/ASS
Codec ID/Info : Advanced Sub Station Alpha
Duration : 1h 45mn
Bit rate : 240 bps
Count of elements : 2353
Compression mode : Lossless
Stream size : 186 KiB (0%)
Title : Українські (повні)
Language : Ukrainian
Default : No
Forced : No
Скріншоти












Реліз від:

Переклад: Nataniel
Ролі озвучили: Олексій Вакуленко (Ейдж), Людмила Чиркова (Милуся)
Робота зі звуком: Олексій Вакуленко (Ейдж)
Постер: Пан_Олександр
За підтримки тайм-кафе "Загата"

Реліз виконано для Київського аніме-клубу «Міцурукі»


Релізи в іншій якості: 720р та Remux 1080p


Авторський реліз (завантажувати можна без реєстрації)
 Трекер:    Зареєстрований   

Завантажити / скачати аніме українською



відео для новачків



 Зареєстрований:   2016-05-13 19:26
 Розмір:   15 GB 
 Оцінка аніме:   2.5/10 (Голосів: 12)
   
RARA AVIS 
Свій


З нами з: 26.12.11
Востаннє: 16.08.17
Повідомлень: 90

2016-05-17 21:00  
15гб...
Дякую за переклад

FBRUA 
Модератор розділу аніме


З нами з: 09.07.13
Востаннє: 17.08.17
Повідомлень: 2041

2016-05-17 21:09  
RARA AVIS,

Ніхто не забороняє завантажити " 720р" (4,17 гб) Wide grin

Ваш часовий пояс: GMT + 2 Години

Нова тема   Відповісти