Нікчемний Я 2 / Despicable Me 2 (2013) 1080p 3D [Half Over Under] 2xUkr/Eng | Sub Eng

Нові коментарі

Нова тема   Відповісти
Автор Повідомлення
-VipeR- 
VIP


З нами з: 17.07.08
Востаннє: 21.08.17
Повідомлень: 289

2016-05-04 14:16  
Нікчемний Я 2 / Despicable Me 2 (2013) 1080p 3D [Half Over Under] 2xUkr/Eng | Sub Eng

Нікчемний Я 2 / Despicable Me 2 (2013) 1080p 3D [Half Over Under] 2xUkr/Eng | Sub Eng


Жанр: анімація, комедія, сімейний
Країна: США



Кінокомпанія: Universal Pictures, Illumination Entertainment
Режисер: П'єр Соффін / Pierre Coffin, Кріс Рено / Chris Renaud
Актори: Стів Карелл, Крістен Віґ, Бенджамін Бретт, Міранда Косґров, Расселл Бренд, Кен Жонґ, Стів Куґан, Елсі Фішер, Дена Ґаєр, Мойзес Аріас

Сюжет:
У той час як Ґрю, колишній суперлиходій, пристосовується до сімейного життя і намагається чесною працею заробляти в сфері бізнесу, таємні лабораторії Арктики виявляються вкраденими. Анти-злодійська ліга вирішує, що вона потребує допомоги Ґрю і його посіпак в розслідуванні.


Тривалість: 01:37:58
Якість: 1080p 3D [HalfOverUnder] ash61
Відео:
кодек:
розмір кадру: 1920 х 1080
бітрейт: 8787 кб/с

Аудіо # 1:
мова: українська
переклад: багатоголосий закадровий
кодек: 2.0
бітрейт: 192 кб/с

Аудіо # 2:
мова: українська
переклад: професійний дубльований | MIC
кодек: MP3
бітрейт: 192 кб/с

Аудіо # 3:
мова: англійська
переклад: оригінал
кодек: 5.1
бітрейт: 1509 кб/с

Аудіо # 4:
мова: англійська
переклад: коментарі
кодек: 2.0
бітрейт: 192 кб/с

Субтитри: №1-3
мова: англійська (повні, SDH, SDH Colored)
тип: програмні (м'які)
формат: *.srt
Info
Код:
General
Unique ID                      : 173894363739517223886259343660604743105 (0x82D2D6131404DC8AAAA9E26E4B905DC1)
Complete name                  : D:\3D\Мультики\Despicable Me 2 (2013) [2xUkr,Eng sub.Eng] 1080p 3D {HalfOverUnder] [Hurtom].
Format                         :
Format version                 : Version 4 / Version 2
File size                      : 7.44 GiB
Duration                       : 1h 38mn
Overall bit rate               : 10.9 Mbps
Movie name                     : Нікчемний Я 2 / Despicable Me 2 (2013) [2xUkr,Eng sub.Eng] 720p [Hurtom & HDClub] by igor911 https://toloka.to/t73375
Encoded date                   : UTC 2016-05-04 10:11:33
Writing application            : mkvmerge v8.8.0 ('Wind at my back') 64bit
Writing library                : libebml v1.3.3 + libmatroska v1.4.4
Cover                          : Yes
Attachments                    : cover.jpg

Video
ID                             : 1
Format                         : AVC
Format/Info                    : Advanced Video Codec
Format profile                 : [email protected]
Format settings, CABAC         : Yes
Format settings, ReFrames      : 4 frames
Codec ID                       : V_MPEG4/ISO/AVC
Duration                       : 1h 38mn
Bit rate                       : 8 787 Kbps
Width                          : 1 920 pixels
Height                         : 1 080 pixels
Display aspect ratio           : 16:9
Frame rate mode                : Constant
Frame rate                     : 23.976 (24000/1001) fps
Color space                    : YUV
Chroma subsampling             : 4:2:0
Bit depth                      : 8 bits
Scan type                      : Progressive
Bits/(Pixel*Frame)             : 0.177
Stream size                    : 6.02 GiB (81%)
Title                          : by Ash61
Writing library                : core 129 r2245 bc13772
Encoding settings              : cabac=1 / ref=4 / deblock=1:-3:-3 / analyse=0x3:0x113 / me=umh / subme=10 / psy=1 / psy_rd=1.00:0.15 / mixed_ref=1 / me_range=32 / chroma_me=1 / trellis=2 / 8x8dct=1 / cqm=0 / deadzone=21,11 / fast_pskip=1 / chroma_qp_offset=-3 / threads=12 / lookahead_threads=2 / sliced_threads=0 / nr=0 / decimate=1 / interlaced=0 / bluray_compat=0 / constrained_intra=0 / bframes=9 / b_pyramid=2 / b_adapt=2 / b_bias=0 / direct=3 / weightb=1 / open_gop=0 / weightp=2 / keyint=250 / keyint_min=23 / scenecut=40 / intra_refresh=0 / rc_lookahead=60 / rc=crf / mbtree=1 / crf=17.0 / qcomp=0.70 / qpmin=0 / qpmax=69 / qpstep=4 / vbv_maxrate=40000 / vbv_bufsize=30000 / crf_max=0.0 / nal_hrd=none / frame-packing=4 / ip_ratio=1.40 / aq=1:0.70
Language                       : English
Default                        : Yes
Forced                         : No

Audio #1
ID                             : 2
Format                         : AC-3
Format/Info                    : Audio Coding 3
Mode extension                 : CM (complete main)
Format settings, Endianness    : Big
Codec ID                       : A_AC3
Duration                       : 1h 37mn
Bit rate mode                  : Constant
Bit rate                       : 192 Kbps
Channel(s)                     : 2 channels
Channel positions              : Front: L R
Sampling rate                  : 48.0 KHz
Frame rate                     : 31.250 fps (1536 spf)
Compression mode               : Lossy
Stream size                    : 135 MiB (2%)
Title                          : MVO [ICTV] 2.0 192 kbps [Hurtom-Gelios]
Language                       : Ukrainian
Default                        : Yes
Forced                         : No

Audio #2
ID                             : 3
Format                         : MPEG Audio
Format version                 : Version 1
Format profile                 : Layer 3
Mode                           : Joint stereo
Mode extension                 : MS Stereo
Codec ID                       : A_MPEG/L3
Codec ID/Hint                  : MP3
Duration                       : 1h 31mn
Bit rate mode                  : Constant
Bit rate                       : 192 Kbps
Channel(s)                     : 2 channels
Sampling rate                  : 32.0 KHz
Frame rate                     : 27.778 fps (1152 spf)
Compression mode               : Lossy
Stream size                    : 126 MiB (2%)
Title                          : DUB [Mic] MP3 2.0 192 kbps [Hurtom-legos25]
Language                       : Ukrainian
Default                        : No
Forced                         : No

Audio #3
ID                             : 4
Format                         :
Format/Info                    : Digital Theater Systems
Mode                           : 16
Format settings, Endianness    : Big
Codec ID                       : A_DTS
Duration                       : 1h 37mn
Bit rate mode                  : Constant
Bit rate                       : 1 509 Kbps
Channel(s)                     : 6 channels
Channel positions              : Front: L C R, Side: L R, LFE
Sampling rate                  : 48.0 KHz
Frame rate                     : 93.750 fps (512 spf)
Bit depth                      : 24 bits
Compression mode               : Lossy
Stream size                    : 1.03 GiB (14%)
Title                          : Original, 5.1 1509 kbps
Language                       : English
Default                        : No
Forced                         : No

Audio #4
ID                             : 5
Format                         : AC-3
Format/Info                    : Audio Coding 3
Format profile                 : Dolby Digital
Mode extension                 : CM (complete main)
Format settings, Endianness    : Big
Codec ID                       : A_AC3
Duration                       : 1h 37mn
Bit rate mode                  : Constant
Bit rate                       : 192 Kbps
Channel(s)                     : 2 channels
Channel positions              : Front: L R
Sampling rate                  : 48.0 KHz
Frame rate                     : 31.250 fps (1536 spf)
Compression mode               : Lossy
Stream size                    : 135 MiB (2%)
Title                          : Commentary with Directors Chris Renaud & Pierre Coffin, 2.0 192 kbps
Language                       : English
Default                        : No
Forced                         : No

Text #1
ID                             : 6
Format                         : UTF-8
Codec ID                       : S_TEXT/UTF8
Codec ID/Info                  : UTF-8 Plain Text
Duration                       : 1h 33mn
Bit rate                       : 40 bps
Count of elements              : 1086
Stream size                    : 27.6 KiB (0%)
Title                          : Eng full
Language                       : English
Default                        : No
Forced                         : No

Text #2
ID                             : 7
Format                         : UTF-8
Codec ID                       : S_TEXT/UTF8
Codec ID/Info                  : UTF-8 Plain Text
Duration                       : 1h 33mn
Bit rate                       : 49 bps
Count of elements              : 1402
Stream size                    : 34.1 KiB (0%)
Title                          : Eng SDH
Language                       : English
Default                        : No
Forced                         : No

Text #3
ID                             : 8
Format                         : UTF-8
Codec ID                       : S_TEXT/UTF8
Codec ID/Info                  : UTF-8 Plain Text
Duration                       : 1h 33mn
Bit rate                       : 70 bps
Count of elements              : 1402
Stream size                    : 48.1 KiB (0%)
Title                          : Eng SDH-COLORED
Language                       : English
Default                        : No
Forced                         : No

Menu
00:00:00.000                   : en:Chapter 1
00:03:22.994                   : en:Chapter 2
00:08:04.734                   : en:Chapter 3
00:15:50.867                   : en:Chapter 4
00:18:28.232                   : en:Chapter 5
00:24:36.892                   : en:Chapter 6
00:30:50.724                   : en:Chapter 7
00:34:40.704                   : en:Chapter 8
00:40:48.279                   : en:Chapter 9
00:46:26.200                   : en:Chapter 10
00:51:23.122                   : en:Chapter 11
00:56:27.426                   : en:Chapter 12
01:00:00.472                   : en:Chapter 13
01:03:27.053                   : en:Chapter 14
01:08:44.078                   : en:Chapter 15
01:14:01.979                   : en:Chapter 16
01:18:08.058                   : en:Chapter 17
01:22:33.907                   : en:Chapter 18
01:27:09.099                   : en:Chapter 19
01:30:33.720                   : en:Chapter 20
Скріншоти
Джерело: &
українські доріжки: ICTV - Gelios - зведення, slavik_v_z - запис з ТБ; MIC -legos25

Відео для перегляду на 3D обладнанні!


 Трекер:    Зареєстрований   

Завантажити / скачати мультфільм українською



відео для новачків



 Зареєстрований:   2016-05-04 14:16
 Розмір:   7.44 GB 
 Оцінка мультфільму:   9/10 (Голосів: 4)
   
Інші релізи
   Нікчемний Я 2 / Despicable Me 2 (2013) 720p-mini Drool  24 / 0   1.58 GB   2017-06-02 10:11 
   Нікчемний Я 2 / Despicable Me 2 (2013) 720p 3xUkr/Eng | Sub Eng igor911  30 / 0   5.35 GB   2017-05-31 19:49 
   Нікчемний Я 2 / Despicable Me 2 (2013) 1080p 3xUkr/Eng | Sub Eng 11FrYkT  24 / 0   9.02 GB   2017-05-31 18:48 
   Нікчемний Я 2 / Despicable Me 2 (2013) Remux 1080p 3xUkr/Eng | Sub Eng 11FrYkT  5 / 0   26.11 GB   2017-05-31 18:46 
   Нікчемний Я 2 / Despicable Me 2 (2013) 3xUkr Gelios  67 / 0   1.45 GB   2017-05-31 18:31 
   Нікчемний Я 2 / Despicable Me 2 (2013) AVC Ukr/Eng | Sub 2xEng krigg070  10 / 0   2.8 GB   2016-05-02 15:53 
92ford 
Новенький


З нами з: 03.04.17
Востаннє: 20.08.17
Повідомлень: 1

2017-04-04 14:48  
Жаль, що чистого дубляжу нема.
Цікаво, він хоч колись з'явиться, чи лиш увісні?

Electroz 
Відео Гуртом - підтримка та поширення
Відео Гуртом - підтримка та поширення


З нами з: 18.09.14
Востаннє: 21.08.17
Повідомлень: 1492

2017-04-04 14:52  
92ford написано:
Цікаво, він хоч колись з'явиться

Пишіть до Megogo, можливо вони додадуть доріжку.
http://megogo.net/ua/contacts

Ваш часовий пояс: GMT + 2 Години

Нова тема   Відповісти