Гра престолів (сезон 6, серії 2-10) / Game of Thrones season (season 6, episodes 2-10) (2016) 720p Eng | sub Ukr

Нові коментарі

Нова тема   Відповісти
Автор Повідомлення
СиницяБандерівка 
Новенький


З нами з: 07.03.15
Востаннє: 19.08.17
Повідомлень: 12

2016-05-03 21:40  
Гра престолів (сезон 6, серії 2-10) / Game of Thrones season (season 6, episodes 2-10) (2016) 720p Eng | sub Ukr

Гра престолів (сезон 6, серії 2-10) / Game of Thrones season (season 6, episodes 2-10) (2016) 720p Eng | sub Ukr


Жанр: драма, фентезі
Країна: США



Кінокомпанія: HBO
Режисер: Джеремі Подесва
Актори: Кіт Гарінгтон, Ніколай Костер-Валдау, Лєна Хіді, Пітер Дінклейдж, Софи Тернер, Мейзи Вільямс та інші

Сюжет:
Поки іде війна між кількома заможними домами Вестероса, діти колишніх правителів намагаються отримати владу. А тим часом на півночі всіма забутий народ, що виживає серед постійних снігів та холодів, планує повернутися на південь від Стіни. Їм треба повернутися на втрачені колись землі, бо зима наближається, а разом з нею й Інші. Настає ніч, темна і повна страхів.


UPD 27.06. Додано 10 серію. Приємного перегляду!

Тривалість: 00:55:18
Якість:
Відео:
кодек:
розмір кадру: 1280 х 720
бітрейт: 2350 кб/с

Аудіо:
мова: англійська
переклад: оригінал
кодек: 5.1
бітрейт: 384 кб/с

Субтитри:
мова: власний переклад з англійської
тип: програмні (м'які)
формат: *.srt
Скріншоти




Info


Загальна інформація

Format:
Format version: version 2
Full size: 1.08 GiB
Duration: 55 mn 18s
Overall bit rate: 2790 kbps

Відео

ID: 1
Format/Info: Advanced video codec
Format profile: [email protected]
Format settings, ReFrames: 5 frames
Codec ID: V_MPEG4/ISO/AVC
Duration: 55mn 18s
Bit rate: 2 350 Kbps
Width: 1 280 pixels
Height: 720 pixels
Display aspect ratio: 16:9
Frame rate mode: Constant
Frame rate: 23.976 (24000/1001) fps
Color space: YUV
Chroma subsampling: 4:2:0
Bit depth: 8 bits
Scan type: Progressive
Bits/(Pixel*Frame): 0.106
Stream size: 930 MiB (84%)
Writing library: core 148 r2665 a01e339
Encoding settings: cabac=1 / ref=5 / deblock=1:-3:-3 / analyse=0x3:0x113 / me=umh / subme=8 / psy=1 / psy_rd=1.05:0.00 / mixed_ref=1 / me_range=16 / chroma_me=1 / trellis=1 / 8x8dct=1 / cqm=0 / deadzone=21,11 / fast_pskip=1 / chroma_qp_offset=-2 / threads=18 / lookahead_threads=3 / sliced_threads=0 / nr=0 / decimate=1 / interlaced=0 / bluray_compat=0 / constrained_intra=0 / bframes=3 / b_pyramid=2 / b_adapt=2 / b_bias=0 / direct=3 / weightb=1 / open_gop=0 / weightp=2 / keyint=250 / keyint_min=23 / scenecut=40 / intra_refresh=0 / rc_lookahead=50 / rc=crf / mbtree=1 / crf=18.0 / qcomp=0.60 / qpmin=0 / qpmax=69 / qpstep=4 / ip_ratio=1.40 / aq=3:0.80
Language: English
Default: Yes
Forced: No

Audio

ID: 2
Format: 5.1
Format/Info: Audio Coding 3
Mode extension: CM (complete main)
Format settings, Endianness: Big
Codec ID: A_AC3
Duration: 55mn 18s
Bit rate mode: Constant
Bit rate: 384 Kbps
Channel(s): 6 channels
Channel(s)_Original: 2 channels
Channel positions: Front: L R
Sampling rate: 48.0 KHz
Frame rate: 31.250 fps (1536 spf)
Compression mode: Lossy
Stream size: 152 MiB (14%)
Language: English
Default: Yes
Forced: No
Джерело:
Особиста оцінка: 10 - без зайвих вагань рекомендую всім!


Золотий реліз (завантажене не впливає на рейтинг)
 Трекер:    Зареєстрований   

Завантажити / скачати серіал українською



відео для новачків



 Зареєстрований:   2016-06-27 17:19
 Розмір:   10.27 GB 
 Оцінка серіалу:   9.6/10 (Голосів: 21)
   
Veyzevul 
Новенький


З нами з: 21.01.11
Востаннє: 19.08.17
Повідомлень: 1

2016-05-03 22:08  
Дякую!
Estranded 
VIP


З нами з: 09.02.14
Востаннє: 20.08.17
Повідомлень: 920

2016-05-03 22:10  
Нема озвучки, то хоч субтитри, дякую!
igor911 
Відео Гуртом
Відео Гуртом


З нами з: 18.01.08
Востаннє: 20.08.17
Повідомлень: 7300

2016-05-03 23:49  
СиницяБандерівка, зазвичай при зміні торрента вказують причину.
vov4ua 
Новенький


З нами з: 19.11.12
Востаннє: 19.08.17
Повідомлень: 10

2016-05-04 00:26  
А хтось роздає? 94.7% і все
СиницяБандерівка 
Новенький


З нами з: 07.03.15
Востаннє: 19.08.17
Повідомлень: 12

2016-05-04 08:20  
igor911
Виявила помилки з перекладом в субтитрах, виправила. Оскільки змінився файл субтитрів, довелося перезавантажувати торент-файл.

uaxpasha 
Свій


З нами з: 05.08.12
Востаннє: 20.08.17
Повідомлень: 140

2016-05-04 19:56  
Дякую за субтитри! Після того як передивлявся оригінал, до озвучки, якою б хорошою вона не була, повертатись вже не хочеться
upd. шось там ВЗАГАЛІ нічого не спів падає. це точно та серія? там де починаються спогади брана? качав версію 1080p з kat

Konfucius 
Управління
Управління


З нами з: 30.09.07
Востаннє: 20.08.17
Повідомлень: 4941

2016-05-05 00:45  
СиницяБандерівка написано:

Відео:
бітрейт: 384 кб/с

Не може бути.

СиницяБандерівка написано:
розмір кадру: 1280 х 720

Скріншоти - 1 024 × 600. Прошу виправити.

Бракує Info.

СиницяБандерівка 
Новенький


З нами з: 07.03.15
Востаннє: 19.08.17
Повідомлень: 12

2016-05-05 10:43  
Дякую за зауваження, все виправила, Info додала. Єдине, що розмір кадру все таки 1280 на 720, згідно з програмою Info.
P.S. Скріншоти тепер зробила правильно Happy

Konfucius 
Управління
Управління


З нами з: 30.09.07
Востаннє: 20.08.17
Повідомлень: 4941

2016-05-11 02:39  
На майбутнє: скріншоти для релізів в якості HD мають бути у форматі png.
Medvgulka 
Новенький


З нами з: 13.04.14
Востаннє: 15.08.17
Повідомлень: 15

2016-05-25 00:46  
хто підкаже чому не можу завантажити ?

торент видає повідомлення :

помилка : не вдалося знайти вказаний шлях

reskalenko 
Новенький


З нами з: 25.01.15
Востаннє: 25.12.16
Повідомлень: 7

2016-05-29 15:07  
Зробіть реліз у морматі avi, навіщо нам цей москальський формат 
igor911 
Відео Гуртом
Відео Гуртом


З нами з: 18.01.08
Востаннє: 20.08.17
Повідомлень: 7300

2016-05-29 15:35  
reskalenko написано:
навіщо нам цей москальський формат

не потрібно флудити у всіх темах, прочитай https://en.wikipedia.org/wiki/ , розділ History і зрозумієш, що москалями там і не пахло.
Цитата:
The project was announced on 6 December 2002[3] as a fork of the Multimedia Container Format (MCF), after disagreements between MCF lead developer Lasse Kärkkäinen and soon-to-be founder Steve Lhomme about the use of the Extensible Binary Meta Language (EBML) instead of a binary format

Skipua 
Новенький


З нами з: 23.04.13
Востаннє: 18.08.17
Повідомлень: 1

2016-06-06 21:47  
Довелось змінити стандартний енкодування субтитрів на Windows-1251, щоб побачити українську замість ієрогліфів Sad (1)
Попередні здається були в UTF-8, відображались без лишніх рухів.

igor911 
Відео Гуртом
Відео Гуртом


З нами з: 18.01.08
Востаннє: 20.08.17
Повідомлень: 7300

2016-06-06 22:15  
СиницяБандерівка написано:
кодек: WMV

виправте, будь ласка, на
СиницяБандерівка написано:
кодек: AC-3
замініть на " 5.1"
СиницяБандерівка написано:
мова: українська

а тут вкажіть, чий переклад і з якої мови. Наприклад, "(власний переклад з англійської)"

СиницяБандерівка 
Новенький


З нами з: 07.03.15
Востаннє: 19.08.17
Повідомлень: 12

2016-06-07 08:06  
Skipua
Цього разу, мабуть, десь проґавила. Наступного понеділка врахую Ваше побажання щодо кодування.

santaklava 
Новенький


З нами з: 12.10.09
Востаннє: 20.08.17
Повідомлень: 23

2016-07-09 20:40  
з субтитрами те що треба, дякую!
Ваш часовий пояс: GMT + 2 Години

Нова тема   Відповісти