Будиночок солодощів / Okashi no Ie (2015) (10 з 10) 720p Jap | sub Ukr

Нові коментарі

Нова тема   Відповісти
Останній раз роздавалося Ліхтарник (2017-08-19)
Автор Повідомлення
Ліхтарник 
VIP


З нами з: 16.09.14
Востаннє: 18.08.17
Повідомлень: 612

2016-05-03 16:14  
Будиночок солодощів / Okashi no Ie (2015) (10 з 10) 720p Jap | sub Ukr

Будиночок солодощів / Okashi no Ie (2015) (10 з 10) 720p Jap | sub Ukr


Жанр: повсякденність, романтика.
Країна: Японія



Кінокомпанія: TBS
Режисер: Юя Ішіі, Катсухіко Ікеда
Актори: Одаґірі Джо, Оно Мачіко, Кацуджі Рьо, Шімада Кюсаку, Яшіґуса Каору та ін.

Сюжет:
Сакурай Таро рано втратив батьків і весь час жив зі своєю бабусею в крамничці солодощів. Вони намагаються втримати бізнес, і Таро ліниво волочить дні разом із другом Саеґусою Хірокі, сценаристом, та постійними відвідувачами громадської бані. Та одного дня до міста вертається його подруга дитинства Кімура Рейко, яка стала матір’ю-одиначкою і намагається почати нове життя після розлучення...


Тривалість: 1 серія 00:23:14 (Всього серій: 10 з 10)
Перелік серій
Серія 1 — "Любов і страх"
Серія 2 — "Сенс"
Серія 3 — "Жаль"
Серія 4 — "Особистий біль зіткнення з реальністю"
Серія 5 — "Любов"
Серія 6 — "Мрія"
Серія 7 — "Мрія триває"
Серія 8 — "Рішучість"
Серія 9 — "Сварка"
Cерія 10 — "Забудькуватість"
Якість: MPEG-4
Відео:
кодек: AVC
розмір кадру: 1280x720
бітрейт: 1 333 кб/с

Аудіо:
мова: японська
переклад: оригінал
кодек: 2.0
бітрейт: 160 кб/с

Субтитри:
мова: українська
тип: вбудовані (жорсткі)
формат: *.ass
Info
General
Complete name : G:\Фільми\Субтитри\Будиночок солодощів Okashi no Ie (2015) 1010 UKR SUB\Будиночок солодощів 01.mp4
Format : MPEG-4
Format profile : Base Media / Version 2
Codec ID : mp42
File size : 249 MiB
Duration : 23mn 14s
Overall bit rate mode : Variable
Overall bit rate : 1 500 Kbps
Writing application : HandBrake 0.10.0 2014112200

Video
ID : 1
Format : AVC
Format/Info : Advanced Video Codec
Format profile : [email protected]
Format settings, CABAC : Yes
Format settings, ReFrames : 4 frames
Codec ID : avc1
Codec ID/Info : Advanced Video Coding
Duration : 23mn 14s
Bit rate : 1 333 Kbps
Width : 1 280 pixels
Height : 720 pixels
Display aspect ratio : 16:9
Frame rate mode : Variable
Frame rate : 23.976 fps
Minimum frame rate : 23.810 fps
Maximum frame rate : 24.390 fps
Color space : YUV
Chroma subsampling : 4:2:0
Bit depth : 8 bits
Scan type : Progressive
Bits/(Pixel*Frame) : 0.060
Stream size : 222 MiB (89%)
Writing library : core 142 r2479 dd79a61
Encoding settings : cabac=1 / ref=1 / deblock=1:0:0 / analyse=0x1:0x111 / me=hex / subme=2 / psy=1 / psy_rd=1.00:0.00 / mixed_ref=0 / me_range=16 / chroma_me=1 / trellis=0 / 8x8dct=0 / cqm=0 / deadzone=21,11 / fast_pskip=1 / chroma_qp_offset=0 / threads=6 / lookahead_threads=2 / sliced_threads=0 / nr=0 / decimate=1 / interlaced=0 / bluray_compat=0 / constrained_intra=0 / bframes=3 / b_pyramid=2 / b_adapt=1 / b_bias=0 / direct=1 / weightb=1 / open_gop=0 / weightp=1 / keyint=240 / keyint_min=24 / scenecut=40 / intra_refresh=0 / rc_lookahead=10 / rc=crf / mbtree=1 / crf=20.0 / qcomp=0.60 / qpmin=0 / qpmax=69 / qpstep=4 / vbv_maxrate=20000 / vbv_bufsize=25000 / crf_max=0.0 / nal_hrd=none / filler=0 / ip_ratio=1.40 / aq=1:1.00
Color primaries : BT.709-5, BT.1361, IEC 61966-2-4, SMPTE RP177
Transfer characteristics : BT.709-5, BT.1361
Matrix coefficients : BT.709-5, BT.1361, IEC 61966-2-4 709, SMPTE RP177

Audio
ID : 2
Format :
Format/Info : Advanced Audio Codec
Format profile : LC
Codec ID : 40
Duration : 23mn 14s
Bit rate mode : Variable
Bit rate : 160 Kbps
Channel(s) : 2 channels
Channel positions : Front: L R
Sampling rate : 48.0 KHz
Compression mode : Lossy
Stream size : 26.6 MiB (11%)
Title : Stereo

Text
ID : 3
Format : Apple text
Codec ID : text
Duration : 23mn 14s
Duration_FirstFrame : 5mn 48s
Duration_LastFrame : -8mn 36s
Bit rate mode : Constant
Bit rate : 0 bps
Stream size : 48.0 Bytes (0%)
Language : English
Скріншоти









Джерело: Otaku no Sekai
Переклад: Rosava


Золотий реліз (завантажене не впливає на рейтинг)
 Трекер:    Зареєстрований   

Завантажити / скачати серіал українською



відео для новачків



 Зареєстрований:   2016-05-03 16:14
 Розмір:   2.47 GB 
 Оцінка серіалу:   9.8/10 (Голосів: 6)
   
Ваш часовий пояс: GMT + 2 Години

Нова тема   Відповісти