MetaMoreFozzey (MMF) - Meta More Fozzey (2004) [APE] | Hip-hop

Нові коментарі

Нова тема   Відповісти
Автор Повідомлення
kolpavel 
VIP


З нами з: 04.05.14
Востаннє: 18.01.19
Повідомлень: 1224

2016-05-01 16:21  
MetaMoreFozzey (MMF) - Meta More Fozzey (2004) [APE] | Hip-hop

MetaMoreFozzey (MMF) - Meta More Fozzey (2004) [APE] | Hip-hop


Стиль: Hip-hop
Країна, місто: Україна, Харків
Сайти: Офіційний сайт
Видавець: Moon Records (MR 901-2)
Виконавці:
Олег Ігорович Михайлюта - вокал, саунд-продюсінг
Олександр Аркадійович Сидоренко - вокал, тексти
Костянтин Миколайович Жуйков - бас
Віктор Анатолійович Корженко - барабани
Олександр Дмитрович Ковальчук - фортепoiано, труба
Ярослав Володимирович Верьовкін - гітара
Антон Олегович Батурин - DJ

Пісні:
    01. Полетiв - 02:34
    02. Тупий та ще тупiший - 03:17
    03. Ненависть - 04:43
    04. Любов - 03:07
    05. Пiсня пацифiста - 03:42
    06. От ж'алко пацана ТелефонStyle - 05:44
    07. ТОбi - 03:04
    08. Оля-ляля - 03:55
    09. Дiти Голiвуду - 04:01
    10. Letter 2 бабуля - 08:27
    11. Травень (Riffmasta Тонi feat. Fozzey) - 03:19
    12. Letter 2 бабуля (Fozzey edition) - 09:56


Тривалість: 00:55:55
Мова: українська
Аудіо-кодек: APE
Бітрейт: 943 кб/с
Джерело: трекер
Додаткова інформація:
EAC
Exact Audio Copy V0.99 prebeta 4 from 23. January 2008

Отчёт EAC об извлечении, выполненном 15. апреля 2009, 20:52

Fozzey / MetaMoreFozzey

Дисковод: Optiarc DVD RW AD-5170A Adapter: 0 ID: 0

Режим чтения : Достоверность
Использование точного потока : Да
Отключение кэша аудио : Да
Использование указателей C2 : Нет

Коррекция смещения при чтении : 48
Способность читать области Lead-in и Lead-out : Нет
Заполнение пропущенных сэмплов тишиной : Да
Удаление блоков с тишиной в начале и конце : Нет
При вычислениях CRC использовались нулевые сэмплы : Да
Интерфейс : Установленный внешний ASPI-интерфейс

Выходной формат : Внутренние WAV-операции
Формат сэмплов : 44.100 Гц; 16 бит; стерео

TOC извлечённого CD

Трек | Старт | Длительность | Начальный сектор | Конечный сектор
---------------------------------------------------------------------
1 | 0:00.00 | 2:34.68 | 0 | 11617
2 | 2:34.68 | 3:17.13 | 11618 | 26405
3 | 5:52.06 | 4:43.28 | 26406 | 47658
4 | 10:35.34 | 3:07.68 | 47659 | 61751
5 | 13:43.27 | 3:42.10 | 61752 | 78411
6 | 17:25.37 | 5:44.49 | 78412 | 104260
7 | 23:10.11 | 3:04.18 | 104261 | 118078
8 | 26:14.29 | 3:55.49 | 118079 | 135752
9 | 30:10.03 | 4:01.16 | 135753 | 153843
10 | 34:11.19 | 8:27.29 | 153844 | 191897
11 | 42:38.48 | 3:19.48 | 191898 | 206870
12 | 45:58.21 | 9:56.57 | 206871 | 251627

Характеристики диапазона извлечения и сообщения об ошибках

Выбранный диапазон

Имя файла G:\Lossless\Fozzey - MetaMoreFozzey.wav

Пиковый уровень 97.9 %
Качество диапазона 99.9 %
CRC копии C49BD487
Копирование... OK

Ошибок не произошло

Конец отчёта


Якщо Ви справді бажаєте підтримати українське - після прослуховування, якщо музика вам сподобалась, придбайте ліцензійний диск. Підтримаймо вітчизняних виконавців!


Фріліч (завантажене не впливає на рейтинг)
 Трекер:    Зареєстрований   

Завантажити / скачати українську музику



відео для новачків



 Зареєстрований:   2016-05-01 16:21
 Розмір:   383 MB 
 Оцінка музики:   10/10 (Голосів: 7)
   
Ваш часовий пояс: GMT + 2 Години

Нова тема   Відповісти