MetaMoreFozzey (MMF) - Mono (2006) [APE] | Hip-hop / Rap

Нові коментарі

Нова тема   Відповісти
Автор Повідомлення
kolpavel 
VIP


З нами з: 04.05.14
Востаннє: 18.01.19
Повідомлень: 1224

2016-05-01 16:06  
MetaMoreFozzey (MMF) - Mono (2006) [APE] | Hip-hop / Rap

MetaMoreFozzey (MMF) - Mono (2006) [APE] | Hip-hop / Rap


Стиль: Hip-hop Rap
Країна, місто: Україна, Харків
Сайти: Офіційний сайт
Видавець: Ukraine Moon Records (MR 1924-2)
Виконавці:
Олег Ігорович Михайлюта - вокал, саунд-продюсінг
Олександр Аркадійович Сидоренко - вокал, тексти
Костянтин Миколайович Жуйков - бас
Віктор Анатолійович Корженко - барабани
Олександр Дмитрович Ковальчук - фортепoiано, труба
Ярослав Володимирович Верьовкін - гітара
Антон Олегович Батурин - DJ

Пісні:
    01. Почну - 03:45
    02. Непорозумiння - 03:43
    03. ЩастяНастяРадостi - 03:21
    04. Шо-мажор - 03:01
    05. Hotel - 03:51
    06. ; - 03:47
    07. Бобiни&Платiвки - 03:49
    08. Своє кіно - 03:25
    09. Харків - 04:00
    10. Більшеніж - 03:28
    11. Dance.Dance.Dance. - 03:47
    12. 31 (radioedit) - 02:33
    13. Кір - 02:40
    14. ШоПопалоШоу-2006 - 03:31


Тривалість: 00:48:46
Мова: українська
Аудіо-кодек: APE
Бітрейт: 959 кб/с
Джерело: трекер
Додаткова інформація:
EAC
Exact Audio Copy V0.99 prebeta 4 from 23. January 2008

Отчёт EAC об извлечении, выполненном 15. апреля 2009, 21:24

Fozzey / Mono MetaMoreFozzey

Дисковод: Optiarc DVD RW AD-5170A Adapter: 0 ID: 0

Режим чтения : Достоверность
Использование точного потока : Да
Отключение кэша аудио : Да
Использование указателей C2 : Нет

Коррекция смещения при чтении : 48
Способность читать области Lead-in и Lead-out : Нет
Заполнение пропущенных сэмплов тишиной : Да
Удаление блоков с тишиной в начале и конце : Нет
При вычислениях CRC использовались нулевые сэмплы : Да
Интерфейс : Установленный внешний ASPI-интерфейс

Выходной формат : Внутренние WAV-операции
Формат сэмплов : 44.100 Гц; 16 бит; стерео

TOC извлечённого CD

Трек | Старт | Длительность | Начальный сектор | Конечный сектор
---------------------------------------------------------------------
1 | 0:00.00 | 3:45.11 | 0 | 16885
2 | 3:45.11 | 3:43.28 | 16886 | 33638
3 | 7:28.39 | 3:21.45 | 33639 | 48758
4 | 10:50.09 | 3:01.55 | 48759 | 62388
5 | 13:51.64 | 3:51.04 | 62389 | 79717
6 | 17:42.68 | 3:47.13 | 79718 | 96755
7 | 21:30.06 | 3:49.52 | 96756 | 113982
8 | 25:19.58 | 3:25.73 | 113983 | 129430
9 | 28:45.56 | 4:00.35 | 129431 | 147465
10 | 32:46.16 | 3:28.22 | 147466 | 163087
11 | 36:14.38 | 3:47.13 | 163088 | 180125
12 | 40:01.51 | 2:33.22 | 180126 | 191622
13 | 42:34.73 | 2:40.01 | 191623 | 203623
14 | 45:14.74 | 3:31.38 | 203624 | 219486
15 | 51:18.37 | 2:28.70 | 230887 | 242056

Характеристики диапазона извлечения и сообщения об ошибках

Выбранный диапазон

Имя файла G:\Lossless\Fozzey - Mono MetaMoreFozzey.wav

Пиковый уровень 97.8 %
Качество диапазона 99.9 %
CRC копии 559A77BB
Копирование... OK

Ошибок не произошло

Конец отчёта


Фріліч (завантажене не впливає на рейтинг)
 Трекер:    Зареєстрований   

Завантажити / скачати українську музику



відео для новачків



 Зареєстрований:   2016-05-01 16:06
 Розмір:   338 MB 
 Оцінка музики:   10/10 (Голосів: 7)
   
Ваш часовий пояс: GMT + 2 Години

Нова тема   Відповісти