Пірати! Банда невдах / The Pirates! Band of Misfits (2012) 3D 1080p [Half OverUnder] Ukr/Eng

Нові коментарі

Нова тема   Відповісти
Автор Повідомлення
-VipeR- 
VIP


З нами з: 17.07.08
Востаннє: 16.08.17
Повідомлень: 289

2016-04-22 11:42  
Пірати! Банда невдах / The Pirates! Band of Misfits (2012) 3D 1080p [Half OverUnder] Ukr/Eng

Пірати! Банда невдах / The Pirates! Band of Misfits (2012) 3D 1080p [Half OverUnder] Ukr/Eng


Жанр: анімація, комедія, пригодницький, сімейний
Країна: Велика Британія, США



Кінокомпанія: Aardman Animations, Sony Pictures Animation
Режисер: Пітер Лорд (Peter Lord), Джефф Н’ювітт (Jeff Newitt)
Актори: Х'ю Грант (Hugh Grant) Піратський Капітан / The Pirate Captain Олег Михайлюта (Фагот), Брендан Глісон (Brendan Gleeson) Пірат з подагрою / The Pirate with Gout, Джеремі Півен (Jeremy Piven) Чорний Белламі / Black Bellamy, Брайан Блессід (Brian Blessed) Піратський Король / The Pirate King Валерій Чигляєв, Ленні Генрі (Lenny Henry) Костиль-Нога Гастінгс / Peg Leg Hastings, Сальма Хайєк (Salma Hayek) Абордажна Ліз / Cutlass Liz, Девід Теннант (David Tennant) Чарльз Дарвін / Charles Darwin Ігор Кондратюк та інші.

Сюжет:
Екранізація першої книги із серії романів письменника Гідеона Дефо, розповідаючих про банду невдалих піратів. У першій частині пірати прибувають до Лондона, де знайомляться з молодим Чарльзом Дарвіном і розмовляючим шимпанзе на ім'я Містер Бобо, а також зіткнуться з ворогами, які хочуть їх знищити.


Тривалість: 01:28:04
Якість: 1080p 3D [Half OverUnder] by ash61
Відео:
кодек:
розмір кадру: 1920 х 1080
бітрейт: 7 942 кб/с

Аудіо # 1:
мова: українська
переклад: професійний дубльований
кодек: 5.1
бітрейт: 640 кб/с

Аудіо # 2:
мова: англійська
переклад: оригінал
кодек: 5.1
бітрейт: 640 кб/с

Джерело озвучення:


Субтитри:
мова: українська (форсовані)
тип: програмні (м'які)
формат: *.srt
Info
Код:
General
Unique ID                      : 223532348050888814866032727927581332533 (0xA82AC3A6DFA6CAAE8D98EB195AC05435)
Complete name                  : D:\3D\Мультики\The Pirates! Band of Misfits (2012) 1080p 3D [Half OverUnder] Ukr Eng.
Format                         :
Format version                 : Version 4 / Version 2
File size                      : 5.67 GiB
Duration                       : 1h 28mn
Overall bit rate               : 9 223 Kbps
Movie name                     : Пірати! Банда покидьків (3D) 2012
Encoded date                   : UTC 2016-04-22 09:40:49
Writing application            : mkvmerge v8.8.0 ('Wind at my back') 64bit
Writing library                : libebml v1.3.3 + libmatroska v1.4.4

Video
ID                             : 1
Format                         : AVC
Format/Info                    : Advanced Video Codec
Format profile                 : High@L4.1
Format settings, CABAC         : Yes
Format settings, ReFrames      : 4 frames
Codec ID                       : V_MPEG4/ISO/AVC
Duration                       : 1h 28mn
Bit rate                       : 7 942 Kbps
Width                          : 1 920 pixels
Height                         : 1 080 pixels
Display aspect ratio           : 16:9
Frame rate mode                : Constant
Frame rate                     : 23.976 (24000/1001) fps
Color space                    : YUV
Chroma subsampling             : 4:2:0
Bit depth                      : 8 bits
Scan type                      : Progressive
Bits/(Pixel*Frame)             : 0.160
Stream size                    : 4.89 GiB (86%)
Title                          :
Writing library                : core 119 r2106 07efeb4
Encoding settings              : cabac=1 / ref=4 / deblock=1:-3:-3 / analyse=0x3:0x113 / me=umh / subme=9 / psy=1 / psy_rd=1.00:0.15 / mixed_ref=1 / me_range=16 / chroma_me=1 / trellis=2 / 8x8dct=1 / cqm=0 / deadzone=21,11 / fast_pskip=1 / chroma_qp_offset=-3 / threads=3 / sliced_threads=0 / nr=0 / decimate=1 / interlaced=0 / bluray_compat=0 / constrained_intra=0 / bframes=6 / b_pyramid=2 / b_adapt=2 / b_bias=0 / direct=3 / weightb=1 / open_gop=0 / weightp=2 / keyint=250 / keyint_min=23 / scenecut=40 / intra_refresh=0 / rc_lookahead=60 / rc=crf / mbtree=1 / crf=16.0 / qcomp=0.60 / qpmin=10 / qpmax=51 / qpstep=4 / vbv_maxrate=40000 / vbv_bufsize=40000 / crf_max=0.0 / nal_hrd=none / frame-packing=4 / ip_ratio=1.40 / aq=1:0.70
Language                       : English
Default                        : Yes
Forced                         : No

Audio #1
ID                             : 2
Format                         : AC-3
Format/Info                    : Audio Coding 3
Mode extension                 : CM (complete main)
Format settings, Endianness    : Big
Codec ID                       : A_AC3
Duration                       : 1h 28mn
Bit rate mode                  : Constant
Bit rate                       : 640 Kbps
Channel(s)                     : 6 channels
Channel positions              : Front: L C R, Side: L R, LFE
Sampling rate                  : 48.0 KHz
Frame rate                     : 31.250 fps (1536 spf)
Compression mode               : Lossy
Stream size                    : 403 MiB (7%)
Title                          : Укр. дубляж 640
Language                       : Ukrainian
Default                        : Yes
Forced                         : Yes

Audio #2
ID                             : 3
Format                         : AC-3
Format/Info                    : Audio Coding 3
Mode extension                 : CM (complete main)
Format settings, Endianness    : Big
Codec ID                       : A_AC3
Duration                       : 1h 28mn
Bit rate mode                  : Constant
Bit rate                       : 640 Kbps
Channel(s)                     : 6 channels
Channel positions              : Front: L C R, Side: L R, LFE
Sampling rate                  : 48.0 KHz
Frame rate                     : 31.250 fps (1536 spf)
Compression mode               : Lossy
Stream size                    : 403 MiB (7%)
Title                          : Original
Language                       : English
Default                        : No
Forced                         : No

Text
ID                             : 4
Format                         : UTF-8
Codec ID                       : S_TEXT/UTF8
Codec ID/Info                  : UTF-8 Plain Text
Duration                       : 1h 25mn
Bit rate                       : 3 bps
Count of elements              : 70
Stream size                    : 2.44 KiB (0%)
Default                        : Yes
Forced                         : No

Menu
00:00:00.000                   : :1
00:08:38.685                   : :2
00:15:13.663                   : :3
00:20:32.440                   : :4
00:27:06.708                   : :5
00:33:08.987                   : :6
00:37:25.493                   : :7
00:42:05.440                   : :8
00:47:28.179                   : :9
00:51:56.196                   : :10
00:56:41.523                   : :11
01:01:10.208                   : :12
01:07:12.487                   : :13
01:11:54.185                   : :14
01:16:23.287                   : :15
01:19:17.670                   : :16
Скріншоти
Джерело: &



Відео для перегляду на 3D обладнанні!


 Трекер:    Зареєстрований   

Завантажити / скачати мультфільм українською



відео для новачків



 Зареєстрований:   2016-04-22 12:49
 Розмір:   5.67 GB 
 Оцінка мультфільму:   8.3/10 (Голосів: 3)
   
chuvilllo1 
Новенький


З нами з: 21.12.15
Востаннє: 12.08.17
Повідомлень: 3

2016-05-01 10:55  
станьте на роздачу))
Ваш часовий пояс: GMT + 2 Години

Нова тема   Відповісти