Макросс - Чи пам'ятаєш ти кохання?/ 超時空要塞マクロス 愛・おぼえていますか (Choujikuu Yousai Macross: Ai Oboete Imasuka)/ Macross: Do You Remember Love? (1984) Ukr/Jap

Нові коментарі

Нова тема   Відповісти
Автор Повідомлення
Patlati Продакшнз 
Частий відвідувач


З нами з: 09.01.12
Востаннє: 16.03.17
Повідомлень: 35

2016-04-14 00:27  
Макросс - Чи пам'ятаєш ти кохання?/ 超時空要塞マクロス 愛・おぼえていますか (Choujikuu Yousai Macross: Ai Oboete Imasuka)/ Macross: Do You Remember Love? (1984) Ukr/Jap

Макросс - Чи пам'ятаєш ти кохання?/ 超時空要塞マクロス 愛・おぼえていますか (Choujikuu Yousai Macross: Ai Oboete Imasuka)/ Macross: Do You Remember Love? (1984) Ukr/Jap


Жанр: фантастика, меха, пригоди, драма
Країна: Японія



7.67 (1210 голосів)

Кінокомпанія: Studio Nue
Режисер: Шьоджі Каваморі, Нобуро Ішіґуро
Сюжет:
У лютому дві тисячі дев'ятого року невідомий флот завдав нищівного удару по Землі. Міжпланетний корабель "Макроcс", на борту якого знаходилося понад п'ятдесят тисяч колоністів, рятуючись від нападу, здійснив гіперстрибок за орбіту Плутона. На шляху додому зореліт атакує ворожий флот істот гігантського зросту. Під час нападу Хікару Ічіджьо, пілот винищувача ескадрильї, яка захищає "Макрос", рятує молоду співачку Лін Мінмей і закохується в неї. Але чи витримають їхні почуття удари долі у війні з чужинцями, в горнило якої втрапив "Макросс"?


Тривалість:: 01:55
Якість:
Відео:
кодек:
розмір кадру: 1344 х 720
бітрейт: 5 929кб/с

Аудіо # 1:
мова: українська
переклад: багатоголосий закадровий (Patlati Продакшнз)
кодек: 5.1
бітрейт: 1509кб/с

Аудіо # 2:
мова: японська
переклад: оригінал
кодек: 2.0
бітрейт: 177кб/с

Аудіо # 3:
мова: японська
переклад: оригінал
кодек: 5.1
бітрейт: 335кб/с

Субтитри:
мова: українська (лише переклад пісень)
тип: програмні (м'які)
формат: *.ass

Субтитри:
мова: англійська
тип: програмні (м'які)
формат: UTF-8

Субтитри:
мова: англійська
тип: програмні (м'які)
формат: *.ass
Info
General
Unique ID : 213056517601620785449126063120779782518 (0xA04931556A4B9AA2B3FF45A7A05F2976)
Complete name : C:\Users\Олександр\Downloads\Макрос\Macross\Macross - Do You Remember Love[Patlati]_720_ed.
Format :
Format version : Version 4 / Version 2
File size : 6.39 GiB
Duration : 1h 55mn
Overall bit rate : 7 954 Kbps
Movie name : Macross - Do You Remember Love?[Patlati]
Encoded date : UTC 2016-04-10 19:17:11
Writing application : mkvmerge v9.0.1 ('Obstacles') 64bit
Writing library : libebml v1.3.3 + libmatroska v1.4.4
Attachments : BELWEC.ttf / CUSHNGH.TTF / CUSHNGHI.TTF / DOMB.TTF / Essai.ttf / manjiro.ttf / spacg___.ttf / spacgi__.ttf

Video
ID : 1
Format : AVC
Format/Info : Advanced Video Codec
Format profile : High [email protected]
Format settings, CABAC : Yes
Format settings, ReFrames : 16 frames
Codec ID : V_MPEG4/ISO/AVC
Duration : 1h 55mn
Bit rate : 5 929 Kbps
Width : 1 344 pixels
Height : 720 pixels
Display aspect ratio : 1.85:1
Frame rate mode : Constant
Frame rate : 23.976 (24000/1001) fps
Color space : YUV
Chroma subsampling : 4:2:0
Bit depth : 10 bits
Scan type : Progressive
Bits/(Pixel*Frame) : 0.256
Stream size : 4.76 GiB (75%)
Title : Macross - Do You Remember Love?
Writing library : core 125 r2200 999b753
Encoding settings : cabac=1 / ref=16 / deblock=1:-1:-1 / analyse=0x3:0x133 / me=umh / subme=10 / psy=1 / psy_rd=1.00:0.30 / mixed_ref=1 / me_range=32 / chroma_me=1 / trellis=2 / 8x8dct=1 / cqm=0 / deadzone=21,11 / fast_pskip=0 / chroma_qp_offset=-4 / threads=9 / lookahead_threads=1 / sliced_threads=0 / nr=0 / decimate=0 / interlaced=0 / bluray_compat=0 / constrained_intra=0 / bframes=16 / b_pyramid=2 / b_adapt=2 / b_bias=0 / direct=3 / weightb=1 / open_gop=0 / weightp=2 / keyint=240 / keyint_min=23 / scenecut=40 / intra_refresh=0 / rc_lookahead=40 / rc=crf / mbtree=1 / crf=19.0 / qcomp=0.60 / qpmin=10 / qpmax=51 / qpstep=4 / ip_ratio=1.40 / aq=1:0.70
Language : Japanese
Default : Yes
Forced : No

Audio #1
ID : 2
Format :
Format/Info : Digital Theater Systems
Mode : 16
Format settings, Endianness : Big
Codec ID : A_DTS
Duration : 1h 55mn
Bit rate mode : Constant
Bit rate : 1 509 Kbps
Channel(s) : 6 channels
Channel positions : Front: L C R, Side: L R, LFE
Sampling rate : 48.0 KHz
Frame rate : 93.750 fps (512 spf)
Bit depth : 24 bits
Compression mode : Lossy
Stream size : 1.21 GiB (19%)
Language : Ukrainian
Default : Yes
Forced : No

Audio #2
ID : 3
Format :
Format/Info : Advanced Audio Codec
Format profile : LC
Codec ID : A_AAC
Duration : 1h 55mn
Bit rate : 177 Kbps
Channel(s) : 2 channels
Channel positions : Front: L R
Sampling rate : 48.0 KHz
Frame rate : 46.875 fps (1024 spf)
Compression mode : Lossy
Delay relative to video : 9ms
Stream size : 146 MiB (2%)
Title : Japanese Audio ( 2.0)
Language : Japanese
Default : No
Forced : No

Audio #3
ID : 4
Format :
Format/Info : Advanced Audio Codec
Format profile : HE- / LC
Codec ID : A_AAC
Duration : 1h 55mn
Bit rate : 335 Kbps
Channel(s) : 6 channels
Channel positions : Front: L C R, Side: L R, LFE
Sampling rate : 48.0 KHz / 24.0 KHz
Frame rate : 23.438 fps (1024 spf)
Compression mode : Lossy
Delay relative to video : 31ms
Stream size : 276 MiB (4%)
Title : Japanese Audio ( 5.1)
Language : Japanese
Default : No
Forced : No

Text #1
ID : 5
Format : ASS
Codec ID : S_TEXT/ASS
Codec ID/Info : Advanced Sub Station Alpha
Duration : 1h 53mn
Bit rate : 98 bps
Count of elements : 1091
Compression mode : Lossless
Stream size : 82.3 KiB (0%)
Title : English Subtitles (ASS)
Language : English
Default : No
Forced : No

Text #2
ID : 6
Format : UTF-8
Codec ID : S_TEXT/UTF8
Codec ID/Info : UTF-8 Plain Text
Duration : 1h 53mn
Bit rate : 44 bps
Count of elements : 1035
Stream size : 37.2 KiB (0%)
Title : English Subtitles (SRT)
Language : English
Default : No
Forced : No

Text #3
ID : 7
Format : ASS
Codec ID : S_TEXT/ASS
Codec ID/Info : Advanced Sub Station Alpha
Duration : 1h 38mn
Bit rate : 9 bps
Count of elements : 82
Compression mode : Lossless
Stream size : 6.68 KiB (0%)
Language : Ukrainian
Default : Yes
Forced : No

Menu
00:00:00.000 : en:00:00:00.000
00:00:12.012 : en:00:00:12.012
00:01:15.450 : en:00:01:15.450
00:03:34.131 : en:00:03:34.131
00:05:11.811 : en:00:05:11.811
00:06:28.471 : en:00:06:28.471
00:13:07.870 : en:00:13:07.870
00:17:26.254 : en:00:17:26.254
00:18:27.648 : en:00:18:27.648
00:20:17.091 : en:00:20:17.091
00:25:45.627 : en:00:25:45.627
00:30:01.883 : en:00:30:01.883
00:33:08.153 : en:00:33:08.153
00:34:54.759 : en:00:34:54.759
00:36:46.538 : en:00:36:46.538
00:39:11.474 : en:00:39:11.474
00:41:49.298 : en:00:41:49.298
00:48:21.023 : en:00:48:21.023
00:50:38.327 : en:00:50:38.327
00:51:30.504 : en:00:51:30.504
00:55:37.876 : en:00:55:37.876
00:58:59.703 : en:00:58:59.703
01:08:18.261 : en:01:08:18.261
01:10:55.960 : en:01:10:55.960
01:12:47.989 : en:01:12:47.989
01:17:45.369 : en:01:17:45.369
01:24:25.060 : en:01:24:25.060
01:29:17.561 : en:01:29:17.561
01:30:07.569 : en:01:30:07.569
01:33:22.931 : en:01:33:22.931
01:36:49.929 : en:01:36:49.929
01:37:52.283 : en:01:37:52.283
01:39:58.618 : en:01:39:58.618
01:45:00.419 : en:01:45:00.419
01:48:00.182 : en:01:48:00.182
01:50:49.643 : en:01:50:49.643
Скріншоти






Джерело:
Ролі озвучили: Oni, Сонцева, Тоня, UnderMySkin, Sancho, Zirko, Аксакал (Patlati Продакшнз)
Переклад: Oni
Особлива подяка меценатам проекту: Головний меценат проекту - Vegetta. Меценат перекладу - Black Angel.

Особиста оцінка: 10 - без зайвих вагань рекомендую всім!


Авторський реліз (завантажувати можна без реєстрації)
 Трекер:    Зареєстрований   

Завантажити / скачати аніме українською



відео для новачків



 Зареєстрований:   2016-04-14 00:27
 Розмір:   6.39 GB 
 Оцінка аніме:   9.7/10 (Голосів: 9)
   
EvGaS 
Відео Гуртом - підтримка та поширення
Відео Гуртом - підтримка та поширення


З нами з: 27.02.12
Востаннє: 20.08.17
Повідомлень: 3332

2016-04-14 07:24  
Patlati Продакшнз написано:
розмір кадру: 1344 х 720

Питається: навіщо різати кадр за меншою стороною? Він не влазить в рамку 1280х720!
Тож - це умовне 720p. Я такі розміри називаю 768p, бо вони влазять в наступну популярну "рамку" 16:9 - 1366х768.
Тобто - реліз 768p (720 називати його неправильно)

Jani307 
Свій


З нами з: 09.06.14
Востаннє: 20.08.17
Повідомлень: 68

2016-04-14 07:57  
Скажіть, це самостійна історія, чи є інші речі, які варто дивитися разом з цим фільмом?

Дивився "Золотий жевжик" з вашим озвучуванням - море задоволення, друзям теж дуже сподобалося.

Дякую за вашу роботу.

EvGaS 
Відео Гуртом - підтримка та поширення
Відео Гуртом - підтримка та поширення


З нами з: 27.02.12
Востаннє: 20.08.17
Повідомлень: 3332

2016-04-14 08:26  
Jani307
Макросс - ціла серія мультсеріалів та мультфільмів:
https://toloka.to/t65616#728964
Якщо згадувати цей - то наче вкорочена версія першого серіалу.

Раджу переглянути ще плюс та макросс 2 - якось вони мені здалися кращими, далі все пішло дещо на спад. (в плюсі - взагалі дуже багато класної музики)

vovchik-first 
Свій


З нами з: 02.05.10
Востаннє: 20.08.17
Повідомлень: 62

2016-04-14 22:51  
EvGaS
Додам я ще до свого списочка
17. Макросс Дельта / Macross Delta 2016 р.(він зараз онгоінгом))БУГАГАШЕЧКИ!)

EvGaS 
Відео Гуртом - підтримка та поширення
Відео Гуртом - підтримка та поширення


З нами з: 27.02.12
Востаннє: 20.08.17
Повідомлень: 3332

2016-04-15 12:18  
vovchik-first написано:
він зараз онгоінгом

Оце понабиралися... хіба не можна просто "йде"? Happy

Patlati Продакшнз 
Частий відвідувач


З нами з: 09.01.12
Востаннє: 16.03.17
Повідомлень: 35

2016-04-19 00:17  
Jani307
Дякуємо за відгук!
Нам теж дуже сподобалося працювати над Жевжиком.

shanjin 
VIP


З нами з: 17.04.13
Востаннє: 19.08.17
Повідомлень: 462

2016-05-21 12:42  
Кінцівка чимось нагадала на кінцівку основної трилогії ME:)та деякі елементи сюжету аніме чимось нагадали про теорії міфічного походження антів,аріїв чи тому подібних теорій про походження венедів...А взагалі дуже дякую за файне аніме та якісно-добру озвучку,бо у свій час довелось ознайомитись та вподобати мимоволі чи по волі обставин всесвіт Макросс за допомогою начебто перших ігор та начебто у вигляді результату втручання представника(ків) США у всесвіт Макросс під назвою Роботех...Хоча можливо помиляюсь,як не як час бере своє...
Ваш часовий пояс: GMT + 2 Години

Нова тема   Відповісти