Зоряні Війни: Повстанці / Star Wars Rebels (Сезон 1) (2014) 720p Ukr/Eng | sub Eng

Нові коментарі

Нова тема   Відповісти
Автор Повідомлення
xslim 
Відео Гуртом - фільмокрай
Відео Гуртом - фільмокрай


З нами з: 05.03.09
Востаннє: 14.04.21
Повідомлень: 1416

2016-03-31 14:42  
Зоряні Війни: Повстанці / Star Wars Rebels (Сезон 1) (2014) 720p Ukr/Eng | sub Eng

Зоряні Війни: Повстанці / Star Wars Rebels (Сезон 1) (2014) 720p Ukr/Eng | sub Eng


Жанр: фантастика, пригоди, анімація
Країна: США



Кінокомпанія: Lucasfilm, Lucasfilm Animation, Disney Television Animation, Disney–ABC Domestic Television
Режисер: Стюарт Лі, Стівен Дж. Лі, Дейв Філоні
Ролі озвучують:
Гера Сендулла - Vanessa Marshall / Юлія Шаповал
Кенан Джарус - Freddie Prinze Jr. / Роман Чорний
Зеб Ореліус - Steve Blum / Сергій Солопай
Езра Бріджер - Taylor Gray / Михайло Федорченко
Сабіна Врен - Tiya Sircar / Антоніна Хажняк
Агент Каллус - David Oyelowo / Володимир Паляниця
Сікатро Візаґо - Keith Szarabajka / Михайло Кукуюк
Дарт Вейдер - James Earl Jones / Кирило Нікітенко
Ареско - Дмитро Вікулов
Допитуавач - Андрій Мостренко
Старий - Володимир Жогло

Сюжет:
Для далекої-далекої Галактики настали темні часи. Поглинаючи один світ за іншим, Галактична Імперія продовжує нарощувати свою міць. Імперські війська, які окупували віддалену планету, встановлюють на ній деспотичний режим. Але знаходяться сміливці, готові протистояти силам Імперії. Це екіпаж космічного корабля «Привид». Команді повстанців належить зіткнутися лицем до лиця з новими грізними супротивниками і стати героями, здатними підняти повстання.
Дія серіалу розгортається за п'ять років до оригінальної трилогії «Зоряних війн», в період між фільмами «Зоряні війни. Епізод III: Помста ситхів» і «Зоряні війни. Епізод IV: Нова надія».


Тривалість: 1 серія: 21:11 (цілком серій: 15)
Перелік серій
01: Spark of Rebellion Part 1
02: Spark of Rebellion Part 2
03: Droids in Distress
04: Fighter Flight
05: Rise of the Old Masters
06: Breaking Ranks
07: Out of Darkness
08: Empire Day
09: Gathering Forces
10: Path of the Jedi
11: Idiot's Array
12: Vision of Hope
13: Call to Action
14: Rebel Resolve
15: Fire Across the Galaxy
Якість:
Відео:
кодек:
розмір кадру: 1280 х 720
бітрейт: 6500 кб/с


Аудіо # 1:
мова: українська
переклад: професійний дубльований
кодек: MP2 (Стерео)
бітрейт: 192 кб/с


Аудіо # 2:
мова: англійська
переклад: оригінал
кодек: 5.1
бітрейт: 640 кб/с

Субтитри:
мова: англійська
тип: програмні (м'які)
формат: *.sub
Info

Video
ID : 1
Format : AVC
Format/Info : Advanced Video Codec
Format profile : [email protected]
Format settings, CABAC : Yes
Format settings, ReFrames : 9 frames
Codec ID : V_MPEG4/ISO/AVC
Duration : 22mn 4s
Bit rate : 6 500 Kbps
Width : 1 280 pixels
Height : 720 pixels
Display aspect ratio : 16:9
Frame rate mode : Constant
Frame rate : 25.000 fps
Original frame rate : 23.976 fps
Color space : YUV
Chroma subsampling : 4:2:0
Bit depth : 8 bits
Scan type : Progressive
Bits/(Pixel*Frame) : 0.282
Stream size : 1.02 GiB (87%)
Writing library : core 146 r2538 121396c
Encoding settings : cabac=1 / ref=9 / deblock=1:-2:-2 / analyse=0x3:0x133 / me=umh / subme=10 / psy=1 / psy_rd=0.70:0.00 / mixed_ref=1 / me_range=24 / chroma_me=1 / trellis=2 / 8x8dct=1 / cqm=0 / deadzone=21,11 / fast_pskip=0 / chroma_qp_offset=-2 / threads=12 / lookahead_threads=3 / sliced_threads=0 / nr=0 / decimate=0 / interlaced=0 / bluray_compat=0 / constrained_intra=0 / bframes=10 / b_pyramid=2 / b_adapt=2 / b_bias=0 / direct=3 / weightb=1 / open_gop=0 / weightp=2 / keyint=240 / keyint_min=23 / scenecut=40 / intra_refresh=0 / rc_lookahead=60 / rc=2pass / mbtree=0 / bitrate=6500 / ratetol=1.0 / qcomp=0.60 / qpmin=0 / qpmax=51 / qpstep=4 / cplxblur=20.0 / qblur=0.5 / vbv_maxrate=62500 / vbv_bufsize=78125 / nal_hrd=none / filler=0 / ip_ratio=1.40 / pb_ratio=1.30 / aq=1:0.60
Language : English
Default : Yes
Forced : Yes
DURATION : 00:22:04.440000000
NUMBER_OF_FRAMES : 33111
NUMBER_OF_BYTES : 1121692551
_STATISTICS_WRITING_APP : v9.3.1 ('Mask Machine') 64bit
_STATISTICS_WRITING_DATE_UTC : 2016-08-08 14:03:20
_STATISTICS_TAGS : BPS DURATION NUMBER_OF_FRAMES NUMBER_OF_BYTES

Audio #1
ID : 2
Format : MPEG Audio
Format version : Version 1
Format profile : Layer 2
Codec ID : A_MPEG/L2
Codec ID/Hint : MP2
Duration : 22mn 4s
Bit rate mode : Constant
Bit rate : 192 Kbps
Channel(s) : 2 channels
Sampling rate : 48.0 KHz
Compression mode : Lossy
Stream size : 30.3 MiB (3%)
Title : ПлюсПлюс / LeDoyen Studio (Стерео) by xSlim
Language : Ukrainian
Default : Yes
Forced : Yes

Audio #2
ID : 3
Format : AC-3
Format/Info : Audio Coding 3
Mode extension : CM (complete main)
Format settings, Endianness : Big
Codec ID : A_AC3
Duration : 22mn 4s
Bit rate mode : Constant
Bit rate : 640 Kbps
Channel(s) : 6 channels
Channel positions : Front: L C R, Side: L R, LFE
Sampling rate : 48.0 KHz
Bit depth : 16 bits
Compression mode : Lossy
Stream size : 101 MiB (8%)
Language : English
Default : No
Forced : No

Text
ID : 4
Format : UTF-8
Codec ID : S_TEXT/UTF8
Codec ID/Info : UTF-8 Plain Text
Language : English
Default : No
Forced : No


&
Особиста оцінка: 10 - без зайвих вагань рекомендую всім!
Запис із ТБ, робота зі звуком: xSlim
Постер: DanyZemlyanoy


Бронзовий реліз (на рейтинг впливає 75% завантаженого)
 Трекер:    Зареєстрований   

Завантажити / скачати мультфільм українською



відео для новачків



 Зареєстрований:   2016-08-08 18:36
 Розмір:   16.94 GB 
 Оцінка мультсеріалу:   9.8/10 (Голосів: 16)
   
EvGaS 
Відео Гуртом - субтитрування
Відео Гуртом - субтитрування


З нами з: 27.02.12
Востаннє: 31.07.19
Повідомлень: 5663

2016-03-31 15:51  
Загалом мультсеріал кращий за посередність, але до минулого мультсеріалу про війни клонів між 2-3 не дотягує (там наче повнометражка та зо 3 сезони).

Ще за ним порівнював підхід лукасівський та діснеєвський до ЗВ. Діснеєвський все ж програє. І справа не в тому, що цей мультсеріал бюджетніший чи має простішу 3-д графіку. Відчувається ...конвеєр, чи що...

Дивитися дітям та впевненим фанатам всесвіту (і які можуть сприймати різні варіації) - їм дійсно буде цікаво й не нудно. Іншим можна проходити повз.

Wdanysia 
Новенький


З нами з: 01.12.12
Востаннє: 30.01.21
Повідомлень: 4

2016-04-29 02:17  
Ну, Війни Клонів теж спочатку нікому не подобалися. А тут, особливо якщо дивитися фіналку 2 сезону, стає все цікавіше і цікавіше. Якщо подумати, то Дісней нічого такого крамольного і не зробив: назвав неканон неканоном, показав, що може зробити щось ЗВшне на прикладі 7 епізоду, і випустив Повстанців.

Мені здається, не час ще судити, справився Дісней з Війнами, чи ні. Ось.

-VJ- 
VIP


З нами з: 01.11.09
Востаннє: 12.04.21
Повідомлень: 804

2016-05-13 17:56  
Wdanysia написано:
Мені здається, не час ще судити, справився Дісней з Війнами, чи ні. Ось.


вже по так званому "7 епізоду" ясно, що не справився.

tpolit 
Попереджень: 1
Попереджень: 1 


З нами з: 10.01.15
Востаннє: 14.04.21
Повідомлень: 709

2016-07-12 02:19  
Українське озвучення другого сезону повстанців з'явиться колись? Не хочу синові показувати російську версію.
xslim 
Відео Гуртом - фільмокрай
Відео Гуртом - фільмокрай


З нами з: 05.03.09
Востаннє: 14.04.21
Повідомлень: 1416

2016-07-12 19:09  
Від мене другий сезон буде коли з'явиться 720p.
tpolit 
Попереджень: 1
Попереджень: 1 


З нами з: 10.01.15
Востаннє: 14.04.21
Повідомлень: 709

2016-07-12 19:13  
На ex ua є 720p.
xslim 
Відео Гуртом - фільмокрай
Відео Гуртом - фільмокрай


З нами з: 05.03.09
Востаннє: 14.04.21
Повідомлень: 1416

2016-07-13 03:30  
Знаю що є 720p але я робитиму 720p що тут не ясно.
tpolit 
Попереджень: 1
Попереджень: 1 


З нами з: 10.01.15
Востаннє: 14.04.21
Повідомлень: 709

2016-07-14 12:11  
Та ясно, що українські діти всі подивляться російськомовний мультик, бо xslim буде чекати на появу 720p )) А коли це станеться, українські діти вже забудуть про 2-й сезон і дивитимуться третій чи четвертий, знову ж таки, російськомовний )
xslim 
Відео Гуртом - фільмокрай
Відео Гуртом - фільмокрай


З нами з: 05.03.09
Востаннє: 14.04.21
Повідомлень: 1416

2016-07-15 05:10  
А мені що до тих малих що хочуть дивитися по свиноруськи.
Вмійте чекати а то виходить ніби якась срачка коли, коли я ж написав коли.

xslim 
Відео Гуртом - фільмокрай
Відео Гуртом - фільмокрай


З нами з: 05.03.09
Востаннє: 14.04.21
Повідомлень: 1416

2016-08-08 18:47  
Торрент оновлено замінено українську доріжку на більш кращу з якістю стерео.

Було та Стало


Obey 
Свій


З нами з: 12.06.11
Востаннє: 12.04.21
Повідомлень: 97

2017-01-03 15:37  
Можливо є у когось AVC, 720 трохи розмір великийHappy
Patriot_ukr 
VIP


З нами з: 06.04.15
Востаннє: 11.04.21
Повідомлень: 2247

2017-01-03 20:32  
Obey написано:
розмір великий

Коли гуртомівці навчаться користуватись пошуком? Є ВЕБ-ДЛ, 4 гектари: https://toloka.to/t68309

Obey 
Свій


З нами з: 12.06.11
Востаннє: 12.04.21
Повідомлень: 97

2017-01-04 14:14  
Цитата:
Коли гуртомівці навчаться користуватись пошуком? Є ВЕБ-ДЛ, 4 гектари: https://toloka.to/t68309 


Якість:
Розмір кадру: 720 × 400

Мені потрібно конкретно у AVC
2 Сезон є у AVC і розмір кадру: 1024 х 576
дякую, але пошуком я користуватися вмію

sshevch 
Новенький


З нами з: 16.11.10
Востаннє: 08.04.21
Повідомлень: 17

2018-09-06 11:26  
3-й 4-й сезон українською є?
hofter 
Частий відвідувач


З нами з: 25.02.15
Востаннє: 28.03.21
Повідомлень: 33

2020-01-05 17:25  
На роздачі 5 людей, а швидкості нуль.
Ваш часовий пояс: GMT + 2 Години

Нова тема   Відповісти