Історія іграшок: Веселозавр Рекс / Toy Story Toons: Partysaurus Rex (2012) 720p Ukr/Eng | Sub Ukr/Eng

Нові коментарі

Нова тема   Відповісти
Автор Повідомлення
Anonymous 







2016-03-30 22:21  
Історія іграшок: Веселозавр Рекс / Toy Story Toons: Partysaurus Rex (2012) 720p Ukr/Eng | Sub Ukr/Eng

Історія іграшок: Веселозавр Рекс / Toy Story Toons: Partysaurus Rex (2012) 720p Ukr/Eng | Sub Ukr/Eng


Жанр: анімація, короткометражний, комедія, сімейний
Країна: США



Кінокомпанія: Pixar Animation Studios, Walt Disney Pictures
Режисер: Марк А. Волш / Mark A. Walsh
Актори: Том Генкс / Tom Hanks, Тім Аллен / Tim Allen, Воллес Шоун / Wallace Shawn, Корі Бартон / Corey Burton, Тоні Кокс / Tony Cox, Дональд Фуллілав / Donald Fullilove, Емілі Ган / Emily Hahn, Дон Ріклз / Don Rickles, Лорі Алан / Lori Alan, Естель Гарріс / Estelle Harris, Джон Раценбергер / John Ratzenberger, Maрк А. Волш / Mark A. Walsh, Тімоті Далтон / Timothy Dalton, Джоан К'юсак / Joan Cusack, Шеррі Лін / Sherry Lynn

Сюжет:
Бідний Рекс. Інші іграшки думають, що він нудний та псує всі вечірки. Але коли Бонні вирішує погратись з ним під час вечірнього купання, з зануди він вмить перетворюється на ... Веселозавра Рекса! Коли заразні веселощі, що панують у ванній, охоплють База, Вуді та інших персонажів з "Історії іграшок", вони змушені визнати, що Рекс - справжній король цієї пінної вечірки!


Рейтинг MPAA: G - нема вікових обмежень
Вікова категорія: 0+

Тривалість: 00:06:34
Якість: 720p
Відео:
кодек:
розмір кадру: 1280x718
бітрейт: 3772 кбіт/с [crf=20]

Аудіо # 1:
мова: українська
озвучення: одноголосе закадрове | SaP-SaP Records - озвучив DS-F.A.I.K.
переклад: Віктор Багряний
кодек: 2.0
бітрейт: 256 кбіт/с

Аудіо # 2:
мова: англійська
переклад: оригінал
кодек: 5.1
бітрейт: 640 кбіт/с

Субтитри # 1:
мова: українська
тип: програмні (м'які)
формат: *.srt
автор: Віктор Багряний

Субтитри # 2-3:
мова: англійська (повні, SDH)
тип: програмні (м'які)
формат: *.srt
Info
Код:
Complete name               : Toy Story. Partysaurus Rex (2012) [Ukr,Eng sub.Ukr,Eng] 720p [Hurtom].
Format                      :
Format version              : Version 4 / Version 2
File size                   : 225 MiB
Duration                    : 6mn 35s
Overall bit rate            : 4 763 Kbps
Movie name                  : Історія іграшок: Веселозавр Рекс / Toy Story Toons: Partysaurus Rex (2012) [Ukr,Eng sub.Ukr,Eng] 720p [Hurtom-igor911]
Encoded date                : UTC 2016-03-30 16:11:16
Writing application         : mkvmerge v9.0.1 ('Obstacles') 64bit
Writing library             : libebml v1.3.3 + libmatroska v1.4.4
Attachements                : cover.jpg
DURATION                    : 00:06:35.456000000
NUMBER_OF_FRAMES            : 12358
NUMBER_OF_BYTES             : 31636480
_STATISTICS_WRITING_APP     : mkvmerge v9.0.1 ('Obstacles') 64bit
_STATISTICS_WRITING_DATE_UT : 2016-03-30 16:11:16
_STATISTICS_TAGS            : BPS DURATION NUMBER_OF_FRAMES NUMBER_OF_BYTES

Video
ID                          : 1
Format                      : AVC
Format/Info                 : Advanced Video Codec
Format profile              : [email protected]
Format settings, CABAC      : Yes
Format settings, ReFrames   : 9 frames
Codec ID                    : V_MPEG4/ISO/AVC
Duration                    : 6mn 35s
Bit rate                    : 3 772 Kbps
Width                       : 1 280 pixels
Height                      : 718 pixels
Display aspect ratio        : 16:9
Frame rate mode             : Constant
Frame rate                  : 23.976 fps
Color space                 : YUV
Chroma subsampling          : 4:2:0
Bit depth                   : 8 bits
Scan type                   : Progressive
Bits/(Pixel*Frame)          : 0.171
Stream size                 : 178 MiB (79%)
Title                       : Історія іграшок: Веселозавр Рекс / Toy Story Toons: Partysaurus Rex (2012) 720p [LEONARDO]
Writing library             : core 125 r2208 d9d2288
Encoding settings           : cabac=1 / ref=9 / deblock=1:-3:-3 / analyse=0x3:0x133 / me=umh / subme=11 / psy=1 / psy_rd=1.00:0.20 / mixed_ref=1 / me_range=32 / chroma_me=1 / trellis=2 / 8x8dct=1 / cqm=0 / deadzone=21,11 / fast_pskip=0 / chroma_qp_offset=-3 / threads=12 / lookahead_threads=2 / sliced_threads=0 / nr=0 / decimate=1 / interlaced=0 / bluray_compat=0 / constrained_intra=0 / bframes=12 / b_pyramid=2 / b_adapt=2 / b_bias=0 / direct=1 / weightb=1 / open_gop=0 / weightp=2 / keyint=250 / keyint_min=23 / scenecut=40 / intra_refresh=0 / rc=crf / mbtree=0 / crf=20.0 / qcomp=0.60 / qpmin=0 / qpmax=69 / qpstep=4 / ip_ratio=1.10 / pb_ratio=1.10 / aq=1:1.00
Language                    : English
Default                     : Yes
Forced                      : No
DURATION                    : 00:06:34.645000000
NUMBER_OF_FRAMES            : 9462
NUMBER_OF_BYTES             : 190554906
_STATISTICS_WRITING_APP     : mkvmerge v9.0.1 ('Obstacles') 64bit
_STATISTICS_WRITING_DATE_UT : 2016-03-30 16:11:16
_STATISTICS_TAGS            : BPS DURATION NUMBER_OF_FRAMES NUMBER_OF_BYTES

Audio #1
ID                          : 2
Format                      : AC-3
Format/Info                 : Audio Coding 3
Mode extension              : CM (complete main)
Format settings, Endianness : Big
Codec ID                    : A_AC3
Duration                    : 6mn 35s
Bit rate mode               : Constant
Bit rate                    : 256 Kbps
Channel(s)                  : 2 channels
Channel positions           : Front: L R
Sampling rate               : 48.0 KHz
Compression mode            : Lossy
Stream size                 : 12.1 MiB (5%)
Title                       : AVO [SaP-SaP Records] 2.0 256 kbps [Hurtom-DS-F.A.I.K.,igor911]
Language                    : Ukrainian
Default                     : Yes
Forced                      : No

Audio #2
ID                          : 3
Format                      : AC-3
Format/Info                 : Audio Coding 3
Mode extension              : CM (complete main)
Format settings, Endianness : Big
Codec ID                    : A_AC3
Duration                    : 6mn 35s
Bit rate mode               : Constant
Bit rate                    : 640 Kbps
Channel(s)                  : 6 channels
Channel positions           : Front: L C R, Side: L R, LFE
Sampling rate               : 48.0 KHz
Compression mode            : Lossy
Stream size                 : 30.2 MiB (13%)
Title                       : Original 5.1 640 kbps
Language                    : English
Default                     : No
Forced                      : No

Text #1
ID                          : 4
Format                      : UTF-8
Codec ID                    : S_TEXT/UTF8
Codec ID/Info               : UTF-8 Plain Text
Title                       : Ukr full [Hurtom-Віктор Багряний]
Language                    : Ukrainian
Default                     : No
Forced                      : No

Text #2
ID                          : 5
Format                      : UTF-8
Codec ID                    : S_TEXT/UTF8
Codec ID/Info               : UTF-8 Plain Text
Title                       : Eng full
Language                    : English
Default                     : No
Forced                      : No

Text #3
ID                          : 6
Format                      : UTF-8
Codec ID                    : S_TEXT/UTF8
Codec ID/Info               : UTF-8 Plain Text
Title                       : Eng SDH
Language                    : English
Default                     : No
Forced                      : No




Джерела та подяки: &
українська доріжка - DS-F.A.I.K., субтитри, постер - Віктор Багряний.


ЗАЛИШАЙТЕСЬ ЯКОМОГА ДОВШЕ НА РОЗДАЧІ!
СКАЧАВ САМ - ДАЙ СКАЧАТИ ІНШИМ


Авторський реліз (завантажувати можна без реєстрації)
 Трекер:    Зареєстрований   

Завантажити / скачати мультфільм українською



відео для новачків



 Зареєстрований:   2016-03-30 22:21
 Розмір:   225 MB 
 Оцінка мультфільму:   2.4/10 (Голосів: 13)
   
Ваш часовий пояс: GMT + 2 Години

Нова тема   Відповісти