Історія іграшок: Веселозавр Рекс / Toy Story Toons: Partysaurus Rex (2012) Remux 1080p Ukr/Eng | Sub Ukr/Eng

Нові коментарі

Нова тема   Відповісти
Автор Повідомлення
Anonymous 







2016-03-30 12:28  
Історія іграшок: Веселозавр Рекс / Toy Story Toons: Partysaurus Rex (2012) Remux Ukr/Eng | Sub Ukr/Eng

Історія іграшок: Веселозавр Рекс / Toy Story Toons: Partysaurus Rex (2012) Remux 1080p Ukr/Eng | Sub Ukr/Eng


Жанр: анімація, короткометражний, комедія, сімейний
Країна: США



Кінокомпанія: Pixar Animation Studios, Walt Disney Pictures
Режисер: Марк А. Волш / Mark A. Walsh
Актори: Том Генкс / Tom Hanks, Тім Аллен / Tim Allen, Воллес Шоун / Wallace Shawn, Корі Бартон / Corey Burton, Тоні Кокс / Tony Cox, Дональд Фуллілав / Donald Fullilove, Емілі Ган / Emily Hahn, Дон Ріклз / Don Rickles, Лорі Алан / Lori Alan, Естель Гарріс / Estelle Harris, Джон Раценбергер / John Ratzenberger, Maрк А. Волш / Mark A. Walsh, Тімоті Далтон / Timothy Dalton, Джоан К'юсак / Joan Cusack, Шеррі Лін / Sherry Lynn

Сюжет:
Бідний Рекс. Інші іграшки думають, що він нудний та псує всі вечірки. Але коли Бонні вирішує погратись з ним під час вечірнього купання, з зануди він вмить перетворюється на ... Веселозавра Рекса! Коли заразні веселощі, що панують у ванній, охоплють База, Вуді та інших персонажів з "Історії іграшок", вони змушені визнати, що Рекс - справжній король цієї пінної вечірки!


Рейтинг MPAA: G - нема вікових обмежень
Вікова категорія: 0+

Тривалість: 00:06:34
Якість: Remux
Відео:
кодек:
розмір кадру: 1920x1080
бітрейт: 25,3 Мбіт/с

Аудіо # 1:
мова: українська
озвучення: одноголосе закадрове | SaP-SaP Records - озвучив DS-F.A.I.K.
переклад: Віктор Багряний
кодек: 2.0
бітрейт: 256 кбіт/с

Аудіо # 2:
мова: англійська
переклад: оригінал
кодек: -HD MA 7.1
бітрейт: 5083 кбіт/с

Аудіо # 3:
мова: англійська
переклад: коментарі авторів
кодек: 2.0
бітрейт: 320 кбіт/с

Субтитри # 1:
мова: українська
тип: програмні (м'які)
формат: *.srt
автор: Віктор Багряний

Субтитри # 2-4:
мова: англійська (повні, SDH, коментарі)
тип: програмні (м'які)
формат: *.srt

Збережено оригінальні розділи, як на Blu-ray.
Info
Код:
Complete name               : Toy Story. Partysaurus Rex (2012) [Ukr,Eng sub.Ukr,Eng] Remux 1080p [Hurtom].
Format                      :
Format version              : Version 4 / Version 2
File size                   : 1.42 GiB
Duration                    : 6mn 34s
Overall bit rate mode       : Variable
Overall bit rate            : 30.9 Mbps
Movie name                  : Історія іграшок: Веселозавр Рекс / Toy Story Toons: Partysaurus Rex (2012) [Ukr,Eng sub.Ukr,Eng] Remux 1080p [Hurtom-igor911]
Encoded date                : UTC 2016-03-30 17:10:19
Writing application         : mkvmerge v9.0.1 ('Obstacles') 64bit
Writing library             : libebml v1.3.3 + libmatroska v1.4.4
Attachements                : cover.jpg
DURATION                    : 00:06:34.304000000
NUMBER_OF_FRAMES            : 12322
NUMBER_OF_BYTES             : 12617728
_STATISTICS_WRITING_APP     : mkvmerge v9.0.1 ('Obstacles') 64bit
_STATISTICS_WRITING_DATE_UT : 2016-03-30 17:10:19
_STATISTICS_TAGS            : BPS DURATION NUMBER_OF_FRAMES NUMBER_OF_BYTES

Video
ID                          : 1
Format                      : AVC
Format/Info                 : Advanced Video Codec
Format profile              : [email protected]
Format settings, CABAC      : Yes
Format settings, ReFrames   : 4 frames
Codec ID                    : V_MPEG4/ISO/AVC
Duration                    : 6mn 34s
Bit rate mode               : Variable
Maximum bit rate            : 31.5 Mbps
Width                       : 1 920 pixels
Height                      : 1 080 pixels
Display aspect ratio        : 16:9
Frame rate mode             : Constant
Frame rate                  : 23.976 fps
Color space                 : YUV
Chroma subsampling          : 4:2:0
Bit depth                   : 8 bits
Scan type                   : Progressive
Title                       : Історія іграшок: Веселозавр Рекс / Toy Story Toons: Partysaurus Rex (2012) Remux 1080p [-Azureus-]
Language                    : English
Default                     : Yes
Forced                      : No

Audio #1
ID                          : 2
Format                      : AC-3
Format/Info                 : Audio Coding 3
Mode extension              : CM (complete main)
Format settings, Endianness : Big
Codec ID                    : A_AC3
Duration                    : 6mn 34s
Bit rate mode               : Constant
Bit rate                    : 256 Kbps
Channel(s)                  : 2 channels
Channel positions           : Front: L R
Sampling rate               : 48.0 KHz
Compression mode            : Lossy
Stream size                 : 12.0 MiB (1%)
Title                       : AVO [SaP-SaP Records] 2.0 256 kbps [Hurtom-DS-F.A.I.K.,igor911]
Language                    : Ukrainian
Default                     : Yes
Forced                      : No

Audio #2
ID                          : 3
Format                      :
Format/Info                 : Digital Theater Systems
Format profile              : MA / Core
Mode                        : 16
Format settings, Endianness : Big
Codec ID                    : A_DTS
Duration                    : 6mn 34s
Bit rate mode               : Variable
Bit rate                    : Unknown / 1 509 Kbps
Channel(s)                  : 8 channels / 6 channels
Channel positions           : Front: L C R, Side: L R, Back: L R, LFE / Front: L C R, Side: L R, LFE
Sampling rate               : 48.0 KHz
Bit depth                   : 24 bits
Compression mode            : Lossless / Lossy
Title                       : Original -HD MA 7.1  5083 kbps
Language                    : English
Default                     : No
Forced                      : No

Audio #3
ID                          : 4
Format                      : AC-3
Format/Info                 : Audio Coding 3
Mode extension              : CM (complete main)
Format settings, Endianness : Big
Codec ID                    : A_AC3
Duration                    : 6mn 34s
Bit rate mode               : Constant
Bit rate                    : 320 Kbps
Channel(s)                  : 2 channels
Channel positions           : Front: L R
Sampling rate               : 48.0 KHz
Compression mode            : Lossy
Stream size                 : 15.0 MiB (1%)
Title                       : Commentary 2.0 320 kbps
Language                    : English
Default                     : No
Forced                      : No

Text #1
ID                          : 5
Format                      : UTF-8
Codec ID                    : S_TEXT/UTF8
Codec ID/Info               : UTF-8 Plain Text
Title                       : Ukr full [Hurtom-Віктор Багряний]
Language                    : Ukrainian
Default                     : No
Forced                      : No

Text #2
ID                          : 6
Format                      : UTF-8
Codec ID                    : S_TEXT/UTF8
Codec ID/Info               : UTF-8 Plain Text
Title                       : Eng full
Language                    : English
Default                     : No
Forced                      : No

Text #3
ID                          : 7
Format                      : UTF-8
Codec ID                    : S_TEXT/UTF8
Codec ID/Info               : UTF-8 Plain Text
Title                       : Eng SDH
Language                    : English
Default                     : No
Forced                      : No

Text #4
ID                          : 8
Format                      : UTF-8
Codec ID                    : S_TEXT/UTF8
Codec ID/Info               : UTF-8 Plain Text
Title                       : Eng Comentary
Language                    : English
Default                     : No
Forced                      : No

Menu
00:00:00.000                : en:00:00:00.000
00:00:49.549                : en:00:00:49.549
00:01:10.904                : en:00:01:10.904
00:02:48.043                : en:00:02:48.043
00:03:32.754                : en:00:03:32.754
00:04:13.920                : en:00:04:13.920
00:05:07.682                : en:00:05:07.682
00:05:52.269                : en:00:05:52.269
00:06:10.245                : en:00:06:10.245




Джерела та подяки: &
українська доріжка - DS-F.A.I.K., субтитри, постер - Віктор Багряний.


ЗАЛИШАЙТЕСЬ ЯКОМОГА ДОВШЕ НА РОЗДАЧІ!
СКАЧАВ САМ - ДАЙ СКАЧАТИ ІНШИМ


Авторський реліз (завантажувати можна без реєстрації)
 Трекер:    Зареєстрований   

Завантажити / скачати мультфільм українською



відео для новачків



 Зареєстрований:   2016-03-30 22:04
 Розмір:   1.42 GB 
 Оцінка мультфільму:   2.3/10 (Голосів: 14)
   
Ваш часовий пояс: GMT + 2 Години

Нова тема   Відповісти