Вадим Холоденко (Vadym Kholodenko) | Колекцiя (6CD) (2013-2019)[] | Classical

Нові коментарі

Нова тема   Відповісти
Автор Повідомлення
kolpavel 
VIP


З нами з: 04.05.14
Востаннє: 27.02.21
Повідомлень: 1375

2016-03-23 16:44  
Вадим Холоденко (Vadym Kholodenko) | Колекцiя (6CD) (2013-2019)[] | Classical

Вадим Холоденко (Vadym Kholodenko) | Колекцiя (6CD) (2013-2019)[] | Classical


Стиль: Classical
Країна, місто: Україна, Київ
Сайти: Офіційний сайт
Виконавці:
Холоденко Вадим Тимурович

Альбоми:
2013 - Igor Stravinsky, Franz Liszt - Trois mouvements de Petrouchka, Transcendental Etudes

Вадим Холоденко (Vadym Kholodenko) | Колекцiя (6CD) (2013-2019)[] | Classical


Виконавці:
Vadym Kholodenko (piano)

Треклист:

    Igor Stravinsky (1882-1971)
    Trois mouvements de Petrouchka (1921) - 16:07
    01. I. Danse Russe - 2:39
    02. II. Chez Petrouchka - 4:41
    03. III. La semaine grasse - 9:16
    Franz Liszt (1811-1886)
    Transcendental Etudes (1852)- 59:33
    04. I. Preludio - 0:51
    05. II. Molto vivace - 2:23
    06. III. Paysage - 3:39
    07. IV. Mazeppa - 7:06
    08. V. Feux follets - 3:35
    09. VI. Vision - 4:42
    10. VII. Eroica - 4:37
    11. VIII. Wilde Jagd - 5:12
    12. IX. Ricordanza - 10:18
    13. X. Allegro agitato molto - 4:04
    14. XI. Harmonies du soir - 7:50
    15. XII. Chasse-neige - 5:16

Тривалість: 01:15:41
Мова: інструментальнi композицiї
Аудіо-кодек:
Видавець: Harmonia Mundi USA (№ за каталогом hmu 907605)
Бітрейт: 501 кб/с
Джерело: трекер
Додаткова інформація:
EAC:
Exact Audio Copy V0.99 prebeta 5 from 4. May 2009

Отчёт EAC об извлечении, выполненном 30. декабря 2013, 1:35

Vadym Kholodenko / 14th Van Cliburn International Piano Competition: Vadym Kholodenko, gold medalist

Дисковод: ASUS SBC-06D1S-U Adapter: 2 ID: 0

Режим чтения : Достоверность
Использование точного потока : Да
Отключение кэша аудио : Да
Использование указателей C2 : Нет

Коррекция смещения при чтении : 102
Способность читать области Lead-in и Lead-out : Нет
Заполнение пропущенных сэмплов тишиной : Да
Удаление блоков с тишиной в начале и конце : Нет
При вычислениях CRC использовались нулевые сэмплы : Да
Интерфейс : Встроенный Win32-интерфейс для Win NT/2000

Выходной формат : Пользовательский кодировщик
Выбранный битрейт : 768 kBit/s
Качество : Высокий
Добавление ID3-тэга : Нет
Утилита сжатия : C:\Program Files (x86)\Exact Audio Copy\\.exe
Дополнительные параметры : -6 -V -T "ARTIST=%a" -T "TITLE=%t" -T "ALBUM=%g" -T "DATE=%y" -T "TRACKNUMBER=%n" -T "GENRE=%m" -T "COMMENT=%e" %s -o %d

TOC извлечённого CD

Трек | Старт | Длительность | Начальный сектор | Конечный сектор
---------------------------------------------------------------------
1 | 0:00.00 | 2:38.49 | 0 | 11898
2 | 2:38.49 | 4:10.50 | 11899 | 30698
3 | 6:49.24 | 9:16.06 | 30699 | 72404
4 | 16:05.30 | 0:50.56 | 72405 | 76210
5 | 16:56.11 | 2:23.08 | 76211 | 86943
6 | 19:19.19 | 3:38.73 | 86944 | 103366
7 | 22:58.17 | 7:05.62 | 103367 | 135303
8 | 30:04.04 | 3:34.67 | 135304 | 151420
9 | 33:38.71 | 4:42.19 | 151421 | 172589
10 | 38:21.15 | 4:37.09 | 172590 | 193373
11 | 42:58.24 | 5:11.67 | 193374 | 216765
12 | 48:10.16 | 10:18.15 | 216766 | 263130
13 | 58:28.31 | 4:04.21 | 263131 | 281451
14 | 62:32.52 | 7:50.28 | 281452 | 316729
15 | 70:23.05 | 5:15.33 | 316730 | 340387

Характеристики диапазона извлечения и сообщения об ошибках

Выбранный диапазон

Имя файла F:\EAC_AdvantiX\Vadym Kholodenko\Vadym Kholodenko - 14th Van Cliburn International Piano Competition gold medalist.wav

Пиковый уровень 98.3 %
Качество диапазона 100.0 %
CRC копии 6ED00825
Копирование... OK

Ошибок не произошло

AccurateRip: сводка

Трек 1 нет в базе данных
Трек 2 нет в базе данных
Трек 3 нет в базе данных
Трек 4 нет в базе данных
Трек 5 нет в базе данных
Трек 6 нет в базе данных
Трек 7 нет в базе данных
Трек 8 нет в базе данных
Трек 9 нет в базе данных
Трек 10 нет в базе данных
Трек 11 нет в базе данных
Трек 12 нет в базе данных
Трек 13 нет в базе данных
Трек 14 нет в базе данных
Трек 15 нет в базе данных

Ни одного трека нет в базе AccurateRip

Конец отчёта
Скріншот спектра частот:
Вадим Холоденко (Vadym Kholodenko) | Колекцiя (6CD) (2013-2019)[] | Classical
2016 - Sergei Prokofiev: Piano Concertos Nos. 2 & 5

Вадим Холоденко (Vadym Kholodenko) | Колекцiя (6CD) (2013-2019)[] | Classical


Виконавці:
Vadym Kholodenko (piano)
Fort Worth Symphony Orchestra
Miguel Harth-Bedoya

Треклист:

1. Piano Concerto No. 2 in G Minor, Op. 16 - I. Andantino, Allegretto Prokofiev - 00:12:10
2. Piano Concerto No. 2 in G Minor, Op. 16 - II. Scherzo (Vivace) Prokofiev - 00:02:39
3. Piano Concerto No. 2 in G Minor, Op. 16 - III. Intermezzo - Allegro moderato Prokofiev - 00:06:42
4. Piano Concerto No. 2 in G Minor, Op. 16 - IV. Finale - Andante tempestoso Prokofiev - 00:11:55
5. Piano Concerto No. 5 in G Major, Op. 55 - I. Allegro con brio Prokofiev - 00:05:19
6. Piano Concerto No. 5 in G Major, Op. 55 - II. Moderato ben accentuato Prokofiev - 00:04:06
7. Piano Concerto No. 5 in G Major, Op. 55 - III. Toccata - Allegro con fuoco Prokofiev - 00:01:55
8. Piano Concerto No. 5 in G Major, Op. 55 - IV. Larghetto Prokofiev - 00:07:02
9. Piano Concerto No. 5 in G Major, Op. 55 - V. Vivo Prokofiev - 00:05:04

Тривалість: 57:03
Мова: інструментальнi композицiї
Аудіо-кодек:
Видавець: Harmonia Mundi USA (№ за каталогом hmu HMU807631)
Бітрейт: 522 кб/с
Джерело: трекер
Додаткова інформація:
EAC:
Exact Audio Copy V1.1 from 23. June 2015

EAC extraction logfile from 24. May 2016, 21:55

Vadym Kholodendo, Fort Worth Symphony Orchestra, Miguel Harth-Bedoya / Prokofiev - Piano Concerto Nos. 2 & 5

Used drive : HL-DT-STDVDRAM GU70N Adapter: 1 ID: 0

Read mode : Secure
Utilize accurate stream : Yes
Defeat audio cache : Yes
Make use of C2 pointers : No

Read offset correction : 48
Overread into Lead-In and Lead-Out : No
Fill up missing offset samples with silence : Yes
Delete leading and trailing silent blocks : No
Null samples used in CRC calculations : Yes
Used interface : Native Win32 interface for Win NT & 2000

Used output format : User Defined Encoder
Selected bitrate : 128 kBit/s
Quality : High
Add ID3 tag : No
Command line compressor : C:\Program Files (x86)\Exact Audio Copy\\.exe
Additional command line options : -V -8 -T "Date=%year%" -T "Genre=%genre%" %source%

TOC of the extracted CD

Track | Start | Length | Start sector | End sector
---------------------------------------------------------
1 | 0:00.00 | 12:10.29 | 0 | 54778
2 | 12:10.29 | 2:42.49 | 54779 | 66977
3 | 14:53.03 | 6:42.22 | 66978 | 97149
4 | 21:35.25 | 11:55.46 | 97150 | 150820
5 | 33:30.71 | 5:19.71 | 150821 | 174816
6 | 38:50.67 | 4:06.55 | 174817 | 193321
7 | 42:57.47 | 1:55.72 | 193322 | 202018
8 | 44:53.44 | 7:02.50 | 202019 | 233718
9 | 51:56.19 | 5:04.07 | 233719 | 256525

Range status and errors

Selected range

Filename C:\temp\HMU807631 - Prokofiev - Piano Concertos 2 & 5 - Kholodenko\Prokofiev - Piano Concerto Nos. 2 & 5.wav

Peak level 94.1 %
Extraction speed 2.2 X
Range quality 100.0 %
Test CRC 1D69C822
Copy CRC 1D69C822
Copy OK

No errors occurred

AccurateRip summary

Track 1 not present in database
Track 2 not present in database
Track 3 not present in database
Track 4 not present in database
Track 5 not present in database
Track 6 not present in database
Track 7 not present in database
Track 8 not present in database
Track 9 not present in database

None of the tracks are present in the AccurateRip database

End of status report

==== Log checksum 975D835A50290F1518CB49B544752A4B9D2A73300F2C6CA2EE752E785689BF38 ====
2017 - Berg, Hindemith, Strauss, Wolf - Liederabend Live

Вадим Холоденко (Vadym Kholodenko) | Колекцiя (6CD) (2013-2019)[] | Classical


Виконавці:
Andrei Jilihovschi (baritone)
Vadym Kholodenko (piano)

Треклист:
Alban Berg
[1] Piano Sonata, Op.1

Hugo Wolf
[2] Der Tambour (Mörike-Lieder, Heft I)
[3] Der Jäger (Mörike-Lieder, Heft IV)
[4] Nimmersatte Liebe (Mörike-Lieder, Heft I)
[5] Auftrag (Mörike-Lieder, Heft IV)
[6] Der Genesene an die Hoffnung (Mörike-Lieder, Heft I)
[7] Der Gärtner (Mörike-Lieder, Heft II)
[8] Auf einer Wanderung (Mörike-Lieder, Heft II)
[9] Gebet (Mörike-Lieder, Heft III)
[10] Verborgenheit (Mörike-Lieder, Heft I)

Paul Hindemith
[11] Einleitung und Lied (Reihe Kleine Stücke, Op.37/2)

Hugo Wolf
[12] Fussreise (Mörike-Lieder, Heft I)
[13] Das verlassene Mägdlein (Mörike-Lieder, Heft I)
[14] Lebe wohl (Mörike-Lieder, Heft III)
[15] Auf ein altes Bild (Mörike-Lieder, Heft II)
[16] Er ist's (Mörike-Lieder, Heft I)
[17] In der Frühe (Mörike-Lieder, Heft II)
[18] Neue Liebe (Mörike-Lieder, Heft III)
[19] Gesang Weyla's (Mörike-Lieder, Heft IV)
[20] Der Feuerreiter (Mörike-Lieder, Heft IV)

Richard Strauss
[21] Morgen, Op.27 No.4

Тривалість: 01:19:52
Мова: інструментальнi композицiї
Аудіо-кодек:
Видавець: Мелодия (№ за каталогом MEL CD 10 02493)
Бітрейт: 509 кб/с
Джерело: трекер
Додаткова інформація:
EAC:
Exact Audio Copy V1.3 from 2. September 2016

EAC extraction logfile from 28. October 2018, 21:17

Andrei Jilihovschi, Vadym Kholodenko / Liederabend

Used drive : PLDS DVD-RW DU8A6SH Adapter: 1 ID: 0

Read mode : Secure
Utilize accurate stream : Yes
Defeat audio cache : Yes
Make use of C2 pointers : No

Read offset correction : 6
Overread into Lead-In and Lead-Out : No
Fill up missing offset samples with silence : Yes
Delete leading and trailing silent blocks : No
Null samples used in CRC calculations : Yes
Used interface : Native Win32 interface for Win NT & 2000

Used output format : User Defined Encoder
Selected bitrate : 128 kBit/s
Quality : High
Add ID3 tag : No
Command line compressor : C:\Program Files (x86)\Exact Audio Copy\\.exe
Additional command line options : -V -8 -T "Date=%year%" -T "Genre=%genre%" %source%

TOC of the extracted CD

Track | Start | Length | Start sector | End sector
---------------------------------------------------------
1 | 0:00.00 | 11:58.00 | 0 | 53849
2 | 11:58.00 | 2:34.37 | 53850 | 65436
3 | 14:32.37 | 3:47.21 | 65437 | 82482
4 | 18:19.58 | 3:11.51 | 82483 | 96858
5 | 21:31.34 | 1:31.52 | 96859 | 103735
6 | 23:03.11 | 4:38.66 | 103736 | 124651
7 | 27:42.02 | 1:24.08 | 124652 | 130959
8 | 29:06.10 | 3:48.37 | 130960 | 148096
9 | 32:54.47 | 3:24.68 | 148097 | 163464
10 | 36:19.40 | 3:49.35 | 163465 | 180674
11 | 40:09.00 | 6:37.00 | 180675 | 210449
12 | 46:46.00 | 2:48.74 | 210450 | 223123
13 | 49:34.74 | 3:58.01 | 223124 | 240974
14 | 53:33.00 | 2:34.08 | 240975 | 252532
15 | 56:07.08 | 2:28.17 | 252533 | 263649
16 | 58:35.25 | 1:36.32 | 263650 | 270881
17 | 60:11.57 | 3:00.42 | 270882 | 284423
18 | 63:12.24 | 3:42.04 | 284424 | 301077
19 | 66:54.28 | 2:20.24 | 301078 | 311601
20 | 69:14.52 | 5:59.23 | 311602 | 338549
21 | 75:14.00 | 4:36.00 | 338550 | 359249

Range status and errors

Selected range

Filename C:\temp\Liederabend - Jilihovschi, Kholodenko\Liederabend.wav

Peak level 95.5 %
Extraction speed 4.3 X
Range quality 100.0 %
Test CRC B1B9E95C
Copy CRC B1B9E95C
Copy OK

No errors occurred

AccurateRip summary

Track 1 not present in database
Track 2 not present in database
Track 3 not present in database
Track 4 not present in database
Track 5 not present in database
Track 6 not present in database
Track 7 not present in database
Track 8 not present in database
Track 9 not present in database
Track 10 not present in database
Track 11 not present in database
Track 12 not present in database
Track 13 not present in database
Track 14 not present in database
Track 15 not present in database
Track 16 not present in database
Track 17 not present in database
Track 18 not present in database
Track 19 not present in database
Track 20 not present in database
Track 21 not present in database

None of the tracks are present in the AccurateRip database

End of status report

==== Log checksum 0181C3B18FAECA9F16445464F859A849D8CAA5BF08B22875F7AC458C387A2D91 ====
2018 - Alexander Scriabin 1872-1915 Preludes, Etudes & Sonatas nos. 4 & 5

Вадим Холоденко (Vadym Kholodenko) | Колекцiя (6CD) (2013-2019)[] | Classical


Виконавці:
Vadym Kholodenko (piano)

Треклист:
Six Preludes op. 13
1. N° 1. Maestoso in C major
2. N° 2. Allegro in A minor
3. N° 3. Andante in G major
4. N° 4. Allegro in E minor
5. N° 5. Allegro in D major
6. N° 6. Presto in B minor

Five Preludes op. 16
7. N° 1. Andante in B major
8. N° 2. Allegro in G-Sharp minor
9. N° 3. Andante cantabile in G-Flat major
10. N° 4. Lento in E-Flat minor
11. N° 5. Allegretto in F-Sharp major

Piano Sonata No.4, op.30 in F Sharp major
12. I. Andante
13. II. Prestissimo volando

14. Poème tragique in B-Flat Major, Op. 34
15. Poème satanique in C Major, Op. 36

Eight Etudes op. 42
16. N° 1. Presto, in D-Flat Major
17. N° 2. in F-Sharp Minor
18. N° 3. Prestissimo, in F-Sharp Major
19. N° 4. Andante, in F-Sharp Major
20. N° 5. Affanato, in C-Sharp Minor
21. N° 6. Esaltato, in D-Flat Major
22. N° 7. Agitato, in F Minor
23. N° 8. Allegro, in E-Flat Major

24. Sonata No. 5 in F-Sharp Major, Op. 53
25. Vers la flamme op. 72

Тривалість: 01:11:47
Мова: інструментальнi композицiї
Аудіо-кодек:
Видавець: harmonia mundi musique s.a.s (№ за каталогом hmu HMM 902255)
Бітрейт: 2091-2360 кб/с
Джерело: трекер
Додаткова інформація:
EAC:
Exact Audio Copy V1.3 from 2. September 2016

EAC extraction logfile from 25. October 2018, 17:53

Vadym Kholodenko / Scriabin: Preludes, Etudes & Sonatas #4 & 5

Used drive : TSSTcorpDVDWBD SE-406AB Adapter: 1 ID: 2

Read mode : Secure
Utilize accurate stream : Yes
Defeat audio cache : Yes
Make use of C2 pointers : No

Read offset correction : 6
Overread into Lead-In and Lead-Out : No
Fill up missing offset samples with silence : Yes
Delete leading and trailing silent blocks : No
Null samples used in CRC calculations : Yes
Used interface : Native Win32 interface for Win NT & 2000

Used output format : User Defined Encoder
Selected bitrate : 1024 kBit/s
Quality : High
Add ID3 tag : No
Command line compressor : C:\Program Files (x86)\Exact Audio Copy\\.EXE
Additional command line options : -8 -e -p -V -T "ARTIST=%artist%" -T "TITLE=%title%" -T "ALBUM=%albumtitle%" -T "DATE=%year%" -T "TRACKNUMBER=%tracknr%" -T "GENRE=%genre%" -T "PERFORMER=%albuminterpret%" -T "COMPOSER=%composer%" %haslyrics%--tag-from-file=LYRICS="%lyricsfile%"%haslyrics% -T "ALBUMARTIST=%albumartist%" -T "DISCNUMBER=%cdnumber%" -T "TOTALDISCS=%totalcds%" -T "TOTALTRACKS=%numtracks%" -T "COMMENT=%comment%" %source% -o %dest%

TOC of the extracted CD

Track | Start | Length | Start sector | End sector
---------------------------------------------------------
1 | 0:00.00 | 3:15.50 | 0 | 14674
2 | 3:15.50 | 0:48.33 | 14675 | 18307
3 | 4:04.08 | 1:10.61 | 18308 | 23618
4 | 5:14.69 | 1:02.08 | 23619 | 28276
5 | 6:17.02 | 1:22.11 | 28277 | 34437
6 | 7:39.13 | 1:34.13 | 34438 | 41500
7 | 9:13.26 | 2:45.07 | 41501 | 53882
8 | 11:58.33 | 1:15.38 | 53883 | 59545
9 | 13:13.71 | 2:34.22 | 59546 | 71117
10 | 15:48.18 | 1:10.18 | 71118 | 76385
11 | 16:58.36 | 0:41.00 | 76386 | 79460
12 | 17:39.36 | 3:17.74 | 79461 | 94309
13 | 20:57.35 | 5:13.10 | 94310 | 117794
14 | 26:10.45 | 3:55.63 | 117795 | 135482
15 | 30:06.33 | 6:00.60 | 135483 | 162542
16 | 36:07.18 | 1:57.69 | 162543 | 171386
17 | 38:05.12 | 1:19.73 | 171387 | 177384
18 | 39:25.10 | 1:03.43 | 177385 | 182152
19 | 40:28.53 | 2:50.14 | 182153 | 194916
20 | 43:18.67 | 2:57.21 | 194917 | 208212
21 | 46:16.13 | 2:17.63 | 208213 | 218550
22 | 48:34.01 | 1:05.39 | 218551 | 223464
23 | 49:39.40 | 2:26.26 | 223465 | 234440
24 | 52:05.66 | 13:30.57 | 234441 | 295247
25 | 65:36.48 | 6:22.67 | 295248 | 323964

Range status and errors

Selected range

Filename K:\Rips\Scriabin - Preludes, Etudes & Sonatas nos. 4 & 5 - Kholodenko\Vadym Kholodenko - Scriabin- Preludes, Etudes & Sonatas #4 & 5.wav

Peak level 95.5 %
Extraction speed 4.3 X
Range quality 100.0 %
Test CRC 38524375
Copy CRC 38524375
Copy OK

No errors occurred

AccurateRip summary

Track 1 accurately ripped (confidence 1) [81B2CAF0] (AR v2)
Track 2 accurately ripped (confidence 1) [F8911125] (AR v2)
Track 3 accurately ripped (confidence 1) [8F6C5C9F] (AR v2)
Track 4 accurately ripped (confidence 1) [29ACFF4A] (AR v2)
Track 5 accurately ripped (confidence 1) [566896C3] (AR v2)
Track 6 accurately ripped (confidence 1) [E13C4A43] (AR v2)
Track 7 accurately ripped (confidence 1) [0EA800F0] (AR v2)
Track 8 accurately ripped (confidence 1) [805B372E] (AR v2)
Track 9 accurately ripped (confidence 1) [1DF661F4] (AR v2)
Track 10 accurately ripped (confidence 1) [60903853] (AR v2)
Track 11 accurately ripped (confidence 1) [1355049C] (AR v2)
Track 12 accurately ripped (confidence 1) [6BF1403F] (AR v2)
Track 13 accurately ripped (confidence 1) [4DBA9D2D] (AR v2)
Track 14 accurately ripped (confidence 1) [0B27192C] (AR v2)
Track 15 accurately ripped (confidence 1) [E1A6E032] (AR v2)
Track 16 accurately ripped (confidence 1) [0A66E69B] (AR v2)
Track 17 accurately ripped (confidence 1) [E0B5C1CE] (AR v2)
Track 18 accurately ripped (confidence 1) [F68E26B5] (AR v2)
Track 19 accurately ripped (confidence 1) [9CB7FE3D] (AR v2)
Track 20 accurately ripped (confidence 1) [05E9D7BC] (AR v2)
Track 21 accurately ripped (confidence 1) [538AD8F5] (AR v2)
Track 22 accurately ripped (confidence 1) [C4B37CDB] (AR v2)
Track 23 accurately ripped (confidence 1) [BD0977A0] (AR v2)
Track 24 accurately ripped (confidence 1) [7B21865D] (AR v2)
Track 25 accurately ripped (confidence 1) [D408885F] (AR v2)

All tracks accurately ripped

End of status report

---- CUETools DB Plugin V2.1.6

[CTDB TOCID: wJ11vp0xO7GH9yVKiczhjK5.h.U-] found
Submit result: wJ11vp0xO7GH9yVKiczhjK5.h.U- has been confirmed
Track | CTDB Status
1 | (5/5) Accurately ripped
2 | (5/5) Accurately ripped
3 | (5/5) Accurately ripped
4 | (5/5) Accurately ripped
5 | (5/5) Accurately ripped
6 | (5/5) Accurately ripped
7 | (5/5) Accurately ripped
8 | (5/5) Accurately ripped
9 | (5/5) Accurately ripped
10 | (5/5) Accurately ripped
11 | (5/5) Accurately ripped
12 | (5/5) Accurately ripped
13 | (5/5) Accurately ripped
14 | (5/5) Accurately ripped
15 | (5/5) Accurately ripped
16 | (5/5) Accurately ripped
17 | (5/5) Accurately ripped
18 | (5/5) Accurately ripped
19 | (5/5) Accurately ripped
20 | (5/5) Accurately ripped
21 | (5/5) Accurately ripped
22 | (5/5) Accurately ripped
23 | (5/5) Accurately ripped
24 | (5/5) Accurately ripped
25 | (5/5) Accurately ripped
==== Log checksum CA1CC784C36A783DA9D479933C480F7B03D7F2070DEF1E23BE8E386166E09964 ====
(.CUE)
REM GENRE Classical
REM DATE 2018
REM DISCID 6910DF19
REM COMMENT "ExactAudioCopy v1.3"
PERFORMER "Vadym Kholodenko (piano)"
TITLE "Scriabin: Preludes, Etudes & Sonatas nos. 4 & 5"
REM COMPOSER "Alexander Scriabin (1872-1915)"
FILE "Vadym Kholodenko - Alexander Scriabin - Preludes, Etudes & Sonatas nos. 4 & 5." WAVE
TRACK 01 AUDIO
TITLE "Scriabin: Six Preludes, Op. 13 - 1. Maestoso in C major"
PERFORMER "Vadym Kholodenko"
REM COMPOSER "Alexander Scriabin"
INDEX 01 00:00:00
TRACK 02 AUDIO
TITLE "Scriabin: Six Preludes, Op. 13 - 2. Allegro in A minor"
PERFORMER "Vadym Kholodenko"
REM COMPOSER "Alexander Scriabin"
INDEX 01 03:15:50
TRACK 03 AUDIO
TITLE "Scriabin: Six Preludes, Op. 13 - 3. Andante in G major"
PERFORMER "Vadym Kholodenko"
REM COMPOSER "Alexander Scriabin"
INDEX 01 04:04:08
TRACK 04 AUDIO
TITLE "Scriabin: Six Preludes, Op. 13 - 4. Allegro in E minor"
PERFORMER "Vadym Kholodenko"
REM COMPOSER "Alexander Scriabin"
INDEX 01 05:14:69
TRACK 05 AUDIO
TITLE "Scriabin: Six Preludes, Op. 13 - 5. Allegro in D major"
PERFORMER "Vadym Kholodenko"
REM COMPOSER "Alexander Scriabin"
INDEX 01 06:17:02
TRACK 06 AUDIO
TITLE "Scriabin: Six Preludes, Op. 13 - 6. Presto in B minor"
PERFORMER "Vadym Kholodenko"
REM COMPOSER "Alexander Scriabin"
INDEX 01 07:39:13
TRACK 07 AUDIO
TITLE "Scriabin: Five Preludes, Op. 16 - 1. Andante in B major"
PERFORMER "Vadym Kholodenko"
REM COMPOSER "Alexander Scriabin"
INDEX 01 09:13:26
TRACK 08 AUDIO
TITLE "Scriabin: Five Preludes, Op. 16 - 2. Allegro in G-Sharp minor"
PERFORMER "Vadym Kholodenko"
REM COMPOSER "Alexander Scriabin"
INDEX 01 11:58:33
TRACK 09 AUDIO
TITLE "Scriabin: Five Preludes, Op. 16 - 3. Andante cantabile in G-Flat major"
PERFORMER "Vadym Kholodenko"
REM COMPOSER "Alexander Scriabin"
INDEX 01 13:13:71
TRACK 10 AUDIO
TITLE "Scriabin: Five Preludes, Op. 16 - 4. Lento in E-Flat minor"
PERFORMER "Vadym Kholodenko"
REM COMPOSER "Alexander Scriabin"
INDEX 01 15:48:18
TRACK 11 AUDIO
TITLE "Scriabin: Five Preludes, Op. 16 - 5. Allegretto in F-Sharp major"
PERFORMER "Vadym Kholodenko"
REM COMPOSER "Alexander Scriabin"
INDEX 01 16:58:36
TRACK 12 AUDIO
TITLE "Scriabin: Piano Sonata no. 4 In F Sharp, Op. 30 - 1. Andante"
PERFORMER "Vadym Kholodenko"
REM COMPOSER "Alexander Scriabin"
INDEX 01 17:39:36
TRACK 13 AUDIO
TITLE "Scriabin: Piano Sonata no. 4 In F Sharp, Op. 30 - 2. Prestissimo volando"
PERFORMER "Vadym Kholodenko"
REM COMPOSER "Alexander Scriabin"
INDEX 01 20:57:35
TRACK 14 AUDIO
TITLE "Scriabin: Poème tragique, Op. 34 in B-Flat major"
PERFORMER "Vadym Kholodenko"
REM COMPOSER "Alexander Scriabin"
INDEX 01 26:10:45
TRACK 15 AUDIO
TITLE "Scriabin: Poème satanique, Op. 36 in C major"
PERFORMER "Vadym Kholodenko"
REM COMPOSER "Alexander Scriabin"
INDEX 01 30:06:33
TRACK 16 AUDIO
TITLE "Scriabin: Eight Etudes, Op. 42 - 1. Presto in D-Flat major"
PERFORMER "Vadym Kholodenko"
REM COMPOSER "Alexander Scriabin"
INDEX 01 36:07:18
TRACK 17 AUDIO
TITLE "Scriabin: Eight Etudes, Op. 42 - 2. In F-Sharp minor"
PERFORMER "Vadym Kholodenko"
REM COMPOSER "Alexander Scriabin"
INDEX 01 38:05:12
TRACK 18 AUDIO
TITLE "Scriabin: Eight Etudes, Op. 42 - 3. Prestissimo in F-Sharp major"
PERFORMER "Vadym Kholodenko"
REM COMPOSER "Alexander Scriabin"
INDEX 01 39:25:10
TRACK 19 AUDIO
TITLE "Scriabin: Eight Etudes, Op. 42 - 4. Andante in F-Sharp major"
PERFORMER "Vadym Kholodenko"
REM COMPOSER "Alexander Scriabin"
INDEX 01 40:28:53
TRACK 20 AUDIO
TITLE "Scriabin: Eight Etudes, Op. 42 - 5. Affanato in C-Sharp minor"
PERFORMER "Vadym Kholodenko"
REM COMPOSER "Alexander Scriabin"
INDEX 01 43:18:67
TRACK 21 AUDIO
TITLE "Scriabin: Eight Etudes, Op. 42 - 6. Esaltato in D-Flat major"
PERFORMER "Vadym Kholodenko"
REM COMPOSER "Alexander Scriabin"
INDEX 01 46:16:13
TRACK 22 AUDIO
TITLE "Scriabin: Eight Etudes, Op. 42 - 7. Agitato in F minor"
PERFORMER "Vadym Kholodenko"
REM COMPOSER "Alexander Scriabin"
INDEX 01 48:34:01
TRACK 23 AUDIO
TITLE "Scriabin: Eight Etudes, Op. 42 - 8. Allegro in E-Flat major"
PERFORMER "Vadym Kholodenko"
REM COMPOSER "Alexander Scriabin"
INDEX 01 49:39:40
TRACK 24 AUDIO
TITLE "Scriabin: Sonata no. 5 in F-Sharp major, Op. 53"
PERFORMER "Vadym Kholodenko"
REM COMPOSER "Alexander Scriabin"
INDEX 01 52:05:66
TRACK 25 AUDIO
TITLE "Scriabin: Vers la flamme, Op. 72"
PERFORMER "Vadym Kholodenko"
REM COMPOSER "Alexander Scriabin"
INDEX 01 65:36:48
2019 - Sergei Prokofiev: Piano Concertos Nos. 1,3 & 4

Вадим Холоденко (Vadym Kholodenko) | Колекцiя (6CD) (2013-2019)[] | Classical


Виконавці:
Vadym Kholodenko (piano)
Fort Worth Symphony Orchestra
Miguel Harth-Bedoya

Треклист:

01-03. Prokofiev: Piano Concerto No. 1 in D flat major, Op. 10 - 16:12
04-07. Prokofiev: Piano Concerto No. 4 in B flat major, Op. 53 - 23:52
08-10. Prokofiev: Piano Concerto No. 3 in C major, Op. 26 - 30:23

Тривалість: 01:10:32
Мова: інструментальнi композицiї
Аудіо-кодек:
Видавець: Harmonia Mundi (№ за каталогом HMM907632)
Бітрейт: 2370 - 2582 кб/с
Джерело: трекер
Додаткова інформація:
Dynamic Range Meter:
foobar2000 1.4.2 / Dynamic Range Meter 1.1.1
log date: 2019-02-16 14:33:35

--------------------------------------------------------------------------------
Analyzed: Vadym Kholodenko / Prokofiev: Piano Concertos No. 1, 3 & 4
--------------------------------------------------------------------------------

DR Peak RMS Duration Track
--------------------------------------------------------------------------------
DR13 -0.85 dB -18.73 dB 7:09 01-Piano Concerto No. 1 in D-Flat Major, Op. 10: I. Allegro brioso (Live)
DR14 -1.44 dB -22.81 dB 4:29 02-Piano Concerto No. 1 in D-Flat Major, Op. 10: II. Andante assai (Live)
DR10 -0.59 dB -16.23 dB 4:36 03-Piano Concerto No. 1 in D-Flat Major, Op. 10: III. Allegro scherzando (Live)
DR16 -1.43 dB -22.45 dB 4:42 04-Piano Concerto No. 4 in B-Flat Major, Op. 53: I. Vivace (Live)
DR14 -3.09 dB -23.59 dB 9:22 05-Piano Concerto No. 4 in B-Flat Major, Op. 53: II. Andante (Live)
DR14 -1.51 dB -22.19 dB 8:07 06-Piano Concerto No. 4 in B-Flat Major, Op. 53: III. Moderato (Live)
DR15 -6.34 dB -27.56 dB 1:43 07-Piano Concerto No. 4 in B-Flat Major, Op. 53: IV. Vivace (Live)
DR16 -0.63 dB -23.13 dB 9:53 08-Piano Concerto No. 3 in C Major, Op. 26: I. Andante. Allegro (Live)
DR16 -0.40 dB -23.66 dB 10:18 09-Piano Concerto No. 3 in C Major, Op. 26: II. Tema con variazioni (Live)
DR15 -0.43 dB -21.74 dB 10:13 10-Piano Concerto No. 3 in C Major, Op. 26: III. Allegro ma non troppo (Live)
--------------------------------------------------------------------------------

Number of tracks: 10
Official DR value: DR14

Samplerate: 88200 Hz
Channels: 2
Bits per sample: 24
Bitrate: 2473 kbps
Codec:
================================================================================
2019 - Andrey Gugnin, Vadym Kholodenko & Lukas Geniusas / Beethoven, Rachmaninov/Рахманинов, Schubert, Schumann - Dedication to Vera Gornostayeva

Вадим Холоденко (Vadym Kholodenko) | Колекцiя (6CD) (2013-2019)[] | Classical


Виконавці:
Lukas Geniušas, Vadym Kholodenko (piano), Andrey Gugnin (piano)

Треклист:

Beethoven, Ludwig van (1770-1827) :
Piano Sonata No. 21 in C major, Op. 53 'Waldstein' 25:32 - Andrey Gugnin (piano)
01. I. Allegro con brio 11:02
02. II. Introduzione - Adagio molto 4:19
03. III. Rondo - Allegretto moderato - Prestissimo 10:11

Schubert, Franz Peter (1797-1828) :
Klavierstücke (3), D946 28:13 - Vadym Kholodenko (piano)
04. No. 1 in E-Flat Minor 10:04
05. No. 2 in E-Flat Major 12:07
06. No. 3 in C Major 6:02

Schumann, Robert (1810-56) :
Faschingsschwank aus Wien, Op. 26 20:46 - Lukas Geniušas
07. I. Allegro 8:13
08. II. Romanze 2:41
09. III. Scherzino 2:00
10. IV. Intermezzo 2:19
11. V. Finale 5:33

Rachmaninov, Sergey Vassilievich (1873-1943) :
12. 2 Pieces for 6 Hands: No. 2, Romance 5:30 - Lukas Geniušas, Vadym Kholodenko (piano), Andrey Gugnin (piano)

Тривалість: 01:20:01
Мова: інструментальнi композицiї
Аудіо-кодек:
Видавець: MEL CD 1002619
Бітрейт: 1961-2226 кб/с
Джерело: трекер
Додаткова інформація:
лог якостi :

foobar2000 1.5.2 / Dynamic Range Meter 1.1.1
log date: 2020-04-17 15:58:05

--------------------------------------------------------------------------------
Analyzed: Andrey Gugnin / Dedication to Vera Gornostayeva (Live) (1-4)
Lukas Geniušas / Dedication to Vera Gornostayeva (Live) (5-9)
Vadym Kholodenko / Dedication to Vera Gornostayeva (Live) (10-12)
--------------------------------------------------------------------------------

DR Peak RMS Duration Track
--------------------------------------------------------------------------------
DR14 -2.98 dB -22.70 dB 11:03 01-Piano Sonata No. 21 in C Major, Op. 53 "Waldstein": I. Allegro con brio (Live)
DR14 -13.38 dB -33.78 dB 4:19 02-Piano Sonata No. 21 in C Major, Op. 53 "Waldstein": II. Introduzione - Adagio molto (Live)
DR15 -1.02 dB -21.94 dB 10:11 03-Piano Sonata No. 21 in C Major, Op. 53 "Waldstein": III. Rondo - Allegretto moderato - Prestissimo (Live)
DR17 -6.80 dB -29.45 dB 5:31 12-2 Pieces for 6 Hands: No. 2, Romance [Bonus Track] (Live)
DR14 -1.02 dB -21.46 dB 8:14 07-Faschingsschwank aus Wien, Op. 26: I. Allegro (Live)
DR17 -13.82 dB -38.34 dB 2:41 08-Faschingsschwank aus Wien, Op. 26: II. Romanze (Live)
DR12 -2.40 dB -21.44 dB 2:01 09-Faschingsschwank aus Wien, Op. 26: III. Scherzino (Live)
DR13 -7.82 dB -24.61 dB 2:19 10-Faschingsschwank aus Wien, Op. 26: IV. Intermezzo (Live)
DR15 -1.58 dB -21.66 dB 5:33 11-Faschingsschwank aus Wien, Op. 26: V. Finale (Live)
DR16 -2.92 dB -25.05 dB 10:04 04-3 Klavierstücke, D. 946: No. 1 in E-Flat Minor (Live)
DR17 -3.93 dB -27.85 dB 12:08 05-3 Klavierstücke, D. 946: No. 2 in E-Flat Major (Live)
DR14 -1.25 dB -21.87 dB 6:03 06-3 Klavierstücke, D. 946: No. 3 in C Major (Live)
--------------------------------------------------------------------------------

Number of tracks: 12
Official DR value: DR15

Samplerate: 96000 Hz
Channels: 2
Bits per sample: 24
Bitrate: 2226 kbps
Codec:
================================================================================
Якщо Ви справді бажаєте підтримати українське - після прослуховування, якщо музика вам сподобалась, придбайте ліцензійний диск. Підтримаймо вітчизняних виконавців!


Срібний реліз (на рейтинг впливає 50% завантаженого)
 Трекер:    Зареєстрований   

Завантажити / скачати українську музику



відео для новачків



 Зареєстрований:   2020-10-31 20:37
 Розмір:   4.38 GB 
 Оцінка музики:   10/10 (Голосів: 3)
   
dfx_94 
Новенький


З нами з: 02.12.10
Востаннє: 14.02.21
Повідомлень: 16

2016-03-24 01:34  
Дивний збіг обставин, коли про цього музиканта я якраз дізнаюсь з трагічних новин про його сім'ю, а його пісні якраз заливають на Гуртом.
Людина дійсно талановита. Одним словом, жаль

Ваш часовий пояс: GMT + 2 Години

Нова тема   Відповісти