Лисий нянька (Лисий нянька: спецзавдання, Лиса нянька) / The Pacifier (2005) 720p 3xUkr/Eng | Sub Ukr/Eng

Нові коментарі

Нова тема   Відповісти
Автор Повідомлення
Anonymous 







2016-03-18 15:50  
Лисий нянька (Лисий нянька: спецзавдання, Лиса нянька) / The Pacifier (2005) 720p 3xUkr/Eng | Sub Ukr/Eng

Лисий нянька (Лисий нянька: спецзавдання, Лиса нянька) / The Pacifier (2005) 720p 3xUkr/Eng | Sub Ukr/Eng

Альтернативні постери






повнорозмірні зображення відкриються по кліку (з натиснутим CTRL чи кліком середньою кнопкою мишки - у новій вкладці)


Жанр: бойовик, драма, комедія, сімейний
Країна: США, Канада



Кінокомпанія: Walt Disney Pictures, Spyglass Entertainment
Режисер: Адам Шенкман / Adam Shankman
Актори: Він Дізель / Vin Diesel, Лорен Грехем / Lauren Graham, Брітані Сноу / Britany Snow, Фейт Форд / Faith Ford, Керол Кейн / Carol Kane, Бред Ґеррет / Brad Garrett, Морган Йорк / Morgan York, Кеган Гувер / Kegan Hoover, Макс Тіріот / Max Thieriot, Кріс Поттер / Chris Potter та інші

Сюжет:
Шейн Вульф - боєць елітного спецпідрозділу ВМФ США "Морські котики", що виконав за своє життя багато небезпечних і відповідальних бойових завдань і готовий до будь-яких несподіванок, окрім дитячих... Коли йому доручають охороняти дітей вбитого вченого, що працював над секретними проектами уряду США, Шейну доводиться зіткнутися з проблемами зовсім іншого характеру - змінити немовляті підгузки виявляється набагато важче, ніж знешкодити десяток терористів.


Рейтинг MPAA: PG - рекомендується присутність батьків
Вікова категорія: 6+

Тривалість: 01:35:20
Якість: 720p
Відео:
кодек:
розмір кадру: 1280 х 534
бітрейт: 6624 кб/с

Аудіо # 1:
мова: українська
переклад: професійний дубльований
кодек: 2.0 [стерео]
бітрейт: 192 кб/с
назву озвучено як: Лисий нянька
примітка: Віна Дізеля дублював Дмитро Гаврилов

Аудіо # 2:
мова: українська
переклад: двоголосий закадровий
кодек: 2.0
бітрейт: 192 кб/с

Аудіо # 3:
мова: українська
переклад: двоголосий закадровий | Студія 1+1
ролі озвучили: Олександр Завальський і Лідія Муращенко
кодек: 5.1
бітрейт: 448 кб/с
назву озвучено як: Лиса нянька
примітка 2: з цим озвученням фільм транслювався також по та

Аудіо # 4:
мова: англійська
переклад: оригінал
кодек: 5.1
бітрейт: 640 кбіт/с

Субтитри # 1:
мова: українська
тип: програмні (м'які)
формат: *.srt
примітка: переклад з російської - _oles, редагування - igor911

Субтитри # 2:
мова: англійська
тип: програмні (м'які)
формат: *.srt

Збережено оригінальні поіменовані розділи, як на Blu-ray.
Info
Код:
Complete name               : The Pacifier (2005) [3xUkr,Eng sub.Ukr,Eng] 720p [Hurtom].
Format                      :
Format version              : Version 4
File size                   : 5.50 GiB
Duration                    : 1 h 35 min
Overall bit rate            : 8 253 kb/s
Movie name                  : Лисий нянька / Лисий нянька: спецзавдання / Лиса нянька / The Pacifier (2005) [3xUkr,Eng sub.Ukr,Eng] 720p [Hurtom]
Encoded date                : UTC 2021-01-02 22:14:06
Writing application         : v51.0.0 ('I Wish') 64-bit
Writing library             : libebml v1.4.0 + v1.6.2
Cover                       : Yes
Attachments                 : cover.jpg

Video
ID                          : 1
Format                      : AVC
Format/Info                 : Advanced Video Codec
Format profile              : [email protected]
Format settings             : CABAC / 12 Ref Frames
Format settings, CABAC      : Yes
Format settings, Reference  : 12 frames
Codec ID                    : V_MPEG4/ISO/AVC
Duration                    : 1 h 35 min
Bit rate                    : 6 777 kb/s
Width                       : 1 280 pixels
Height                      : 534 pixels
Display aspect ratio        : 2.40:1
Frame rate mode             : Constant
Frame rate                  : 23.976 (24000/1001) FPS
Color space                 : YUV
Chroma subsampling          : 4:2:0
Bit depth                   : 8 bits
Scan type                   : Progressive
Bits/(Pixel*Frame)          : 0.414
Stream size                 : 4.51 GiB (82%)
Title                       : Лисий нянька / The Pacifier (2005) 720p [SbR]
Writing library             : core 148 r2638+53 bb29004 t_mod_Custom [[email protected] X86_64]
Encoding settings           : cabac=1 / ref=12 / deblock=1:-3:-3 / analyse=0x3:0x133 / me=umh / subme=10 / psy=1 / fade_compensate=0.00 / psy_rd=1.00:0.05 / mixed_ref=1 / me_range=24 / chroma_me=1 / trellis=2 / 8x8dct=1 / cqm=0 / deadzone=21,11 / fast_pskip=0 / chroma_qp_offset=-3 / threads=6 / lookahead_threads=1 / sliced_threads=0 / nr=0 / decimate=1 / interlaced=0 / bluray_compat=0 / constrained_intra=0 / fgo=0 / bframes=11 / b_pyramid=2 / b_adapt=2 / b_bias=0 / direct=3 / weightb=1 / open_gop=0 / weightp=2 / keyint=250 / keyint_min=23 / scenecut=40 / intra_refresh=0 / rc_lookahead=60 / rc=crf / mbtree=0 / crf=17.0000 / qcomp=0.65 / qpmin=0:0:0 / qpmax=69:69:69 / qpstep=4 / vbv_maxrate=62500 / vbv_bufsize=78125 / crf_max=0.0 / nal_hrd=none / filler=0 / ip_ratio=1.40 / pb_ratio=1.30 / aq=1:0.80 / aq-sensitivity=10.00 / aq-factor=1.00:1.00:1.00 / aq2=0 / aq3=0
Language                    : English
Default                     : Yes
Forced                      : No
Color range                 : Limited
Color primaries             : BT.709
Transfer characteristics    : BT.709
Matrix coefficients         : BT.709

Audio #1
ID                          : 2
Format                      : AC-3
Format/Info                 : Audio Coding 3
Commercial name             : Dolby Digital
Codec ID                    : A_AC3
Duration                    : 1 h 35 min
Bit rate mode               : Constant
Bit rate                    : 192 kb/s
Channel(s)                  : 2 channels
Channel layout              : L R
Sampling rate               : 48.0 kHz
Frame rate                  : 31.250 FPS (1536 SPF)
Compression mode            : Lossy
Stream size                 : 131 MiB (2%)
Title                       : Dub [Novyj, DVB-T2 20.12.2020], 2.0 [stereo] 192 Kbps [Hurtom - igor911, Bohdan237]
Language                    : Ukrainian
Service kind                : Complete Main
Default                     : Yes
Forced                      : No

Audio #2
ID                          : 3
Format                      : AC-3
Format/Info                 : Audio Coding 3
Commercial name             : Dolby Digital
Codec ID                    : A_AC3
Duration                    : 1 h 35 min
Bit rate mode               : Constant
Bit rate                    : 192 kb/s
Channel(s)                  : 2 channels
Channel layout              : L R
Sampling rate               : 48.0 kHz
Frame rate                  : 31.250 FPS (1536 SPF)
Compression mode            : Lossy
Stream size                 : 131 MiB (2%)
Title                       : DVO [Novyj], 2.0 192 Kbps [Hurtom - Arsenfpu]
Language                    : Ukrainian
Service kind                : Complete Main
Default                     : No
Forced                      : No

Audio #3
ID                          : 4
Format                      : AC-3
Format/Info                 : Audio Coding 3
Commercial name             : Dolby Digital
Codec ID                    : A_AC3
Duration                    : 1 h 35 min
Bit rate mode               : Constant
Bit rate                    : 448 kb/s
Channel(s)                  : 6 channels
Channel layout              : L R C LFE Ls Rs
Sampling rate               : 48.0 kHz
Frame rate                  : 31.250 FPS (1536 SPF)
Compression mode            : Lossy
Stream size                 : 306 MiB (5%)
Title                       : DVO [ICTV, 1+1, Kino] 5.1 448 kbps [Hurtom-_oles,drakon87,urij546724]
Language                    : Ukrainian
Service kind                : Complete Main
Default                     : No
Forced                      : No

Audio #4
ID                          : 5
Format                      : AC-3
Format/Info                 : Audio Coding 3
Commercial name             : Dolby Digital
Codec ID                    : A_AC3
Duration                    : 1 h 35 min
Bit rate mode               : Constant
Bit rate                    : 640 kb/s
Channel(s)                  : 6 channels
Channel layout              : L R C LFE Ls Rs
Sampling rate               : 48.0 kHz
Frame rate                  : 31.250 FPS (1536 SPF)
Compression mode            : Lossy
Stream size                 : 436 MiB (8%)
Title                       : Original, 5.1 640 kbps
Language                    : English
Service kind                : Complete Main
Default                     : No
Forced                      : No

Text #1
ID                          : 6
Format                      : UTF-8
Codec ID                    : S_TEXT/UTF8
Codec ID/Info               : UTF-8 Plain Text
Duration                    : 1 h 29 min
Bit rate                    : 78 b/s
Count of elements           : 1058
Stream size                 : 51.3 KiB (0%)
Title                       : Ukr Full [Hurtom-_oles, igor911]
Language                    : Ukrainian
Default                     : No
Forced                      : No

Text #2
ID                          : 7
Format                      : UTF-8
Codec ID                    : S_TEXT/UTF8
Codec ID/Info               : UTF-8 Plain Text
Duration                    : 1 h 28 min
Bit rate                    : 53 b/s
Count of elements           : 1033
Stream size                 : 34.5 KiB (0%)
Title                       : Eng Full
Language                    : English
Default                     : No
Forced                      : No

Menu
00:00:00.000                : en:To The Rescue
00:06:02.987                : en:New Mission
00:15:39.480                : en:Shane's Rules
00:20:49.289                : en:Helga Quits
00:25:05.170                : en:School Day
00:33:03.898                : en:A Little Emergency
00:36:11.961                : en:The New Den Mother
00:41:02.877                : en:Home Invasion
00:46:39.505                : en:Seth The Performer
00:53:54.481                : en:Driving Lesson
00:57:30.488                : en:Friendly Wrestling Match
01:01:50.998                : en:Part Of The Family
01:09:55.608                : en:Mom's Fateful Return
01:19:56.458                : en:Discovering The Ghost
01:25:33.837                : en:One More Mission
01:29:54.013                : en:End Credits


Порівняння з оригіналом
Оригінал <---------->Цей ріп







Джерело: &
Над релізом працювали: Bohdan237 (запис дубляжу з Нового, DVB-T2, 18 кГц); Arsenfpu - робота з аудіодоріжкою №2; _oles - синхронізація аудіо №3, переклад субтитрів; drakon87, urij546724 - запис аудіо №3 з ТБ; Bovich - українізація постера; igor911 - синхронізація дубляжу, редагування субтитрів, робота з постерами; Віктор - фільмографії акторів та інформація про озвучення.

Історія релізу:
18.03.2016 початковий реліз, 720p + двоголосе закадрове озвучення від студії 1+1 (запис з ICTV)
03.01.2021 реліз оновлено - додано український дубляж та ще одне двоголосе озвучення , відредаговано українські субтитри, додано іменовані розділи


 Трекер:    Зареєстрований   

Завантажити / скачати фільм українською



відео для новачків



 Зареєстрований:   2021-01-03 10:26
 Розмір:   5.5 GB 
 Оцінка фільму:   6.6/10 (Голосів: 28)
 ЗАЛИШАЙТЕСЬ ЯКОМОГА ДОВШЕ НА РОЗДАЧІ! ЗАВАНТАЖИВ САМ - ДАЙ ЗАВАНТАЖИТИ ІНШИМ!
   
Anonymous 







2021-01-03 10:27  
03.01.2021 реліз оновлено - додано український дубляж та ще одне двоголосе озвучення , відредаговано українські субтитри, додано іменовані розділи
Ваш часовий пояс: GMT + 2 Години

Нова тема   Відповісти