Оз: нашестя летючих мавп (Оз: нашестя лiтаючих мавп, Wicked Flying Monkeys) / Guardianes de Oz (2015) 720p Ukr/Spa

Нові коментарі

Нова тема   Відповісти
Автор Повідомлення
Anonymous 







2016-03-13 21:28  
Оз: нашестя летючих мавп / Guardianes de Oz (2015) 720p Ukr/Spa



Оригінальні постери




повнорозмірні зображення відкриються по кліку (з натиснутим CTRL чи кліком середньою кнопкою мишки - у новій вкладці)


Жанр: анімація, фентезі, пригодницький
Країна: Мексика



Кінокомпанія: Anima Estudios, Discreet Arts Productions
Режисер: Альберто Мар / Alberto Mar
Актори: Рауль Араіса / Raúl Araiza, Раймундо Арміхо / Raymundo Armijo, Ямал Атала / Yamil Atala, Бруно Коронел / Bruno Coronel, Магда Хінер / Magda Giner, Себастьян Льяпур / Sebastián Llapur, Мойсес Іван Мора / Moisés Iván Mora, Лорето Пералта / Loreto Peralta, Сальвадор Рейс / Salvador Reyes, Хорхе Ван Ранкін / Jorge Van Rankin та інші

Сюжет:
Дії розгортаються у Чарівній Країні Оз. Там відбувалися дивовижні історії. Краще за всіх одну з них побачила та розповіла маленька літаюча мавпочка. Давно минули часи, коли по Чарівній країні подорожувала юна Дороті разом зі Опудалом, Залізним Дроворубом і Левом. Дівчинка повернулася додому, а друзі справедливо правили країною. Доброта чарівниці Глінді несподівано принесла неприємності. Повіривши підступній відьмі Заходу, Глінді повернула її в країну з надією, що та вже виправилася. І якби ж так сталося, як гадалося. Лиходійка спробувала підкорити всіх собі.


Рейтинг MPAA: PG - рекомендується присутність батьків
Вікова категорія: 6+

Тривалість: 01:27:21
Якість: 720p
Відео:
кодек:
розмір кадру: 1280 х 688
бітрейт: 3856 кбіт/с

Аудіо # 1:
мова: українська
переклад: професійний дубльований
кодек: 2.0
бітрейт: 192 кбіт/с

Аудіо # 2:
мова: іспанська
переклад: оригінал
кодек: mp3 2.0
бітрейт: 128 кбіт/с
Info
Код:
Complete name               : Guardianes de Oz (2015) [Ukr,Spa] 720p [Hurtom].
Format                      :
Format version              : Version 4 / Version 2
File size                   : 2.55 GiB
Duration                    : 1h 27mn
Overall bit rate            : 4 176 Kbps
Movie name                  : Оз: нашестя летючих мавп / Guardianes de Oz / Wicked Flying Monkeys (2015) 720p [Hurtom-igor911]
Encoded date                : UTC 2016-03-14 19:14:34
Writing application         : mkvmerge v8.9.0 ('Father Daughter') 64bit
Writing library             : libebml v1.3.3 + libmatroska v1.4.4
Attachements                : cover.jpg
DURATION                    : 01:25:47.846000000
NUMBER_OF_FRAMES            : 197066
NUMBER_OF_BYTES             : 82365544
_STATISTICS_WRITING_APP     : mkvmerge v8.9.0 ('Father Daughter') 64bit
_STATISTICS_WRITING_DATE_UT : 2016-03-14 19:14:34
_STATISTICS_TAGS            : BPS DURATION NUMBER_OF_FRAMES NUMBER_OF_BYTES

Video
ID                          : 1
Format                      : AVC
Format/Info                 : Advanced Video Codec
Format profile              : [email protected]
Format settings, CABAC      : Yes
Format settings, ReFrames   : 4 frames
Codec ID                    : V_MPEG4/ISO/AVC
Duration                    : 1h 27mn
Bit rate                    : 3 773 Kbps
Width                       : 1 280 pixels
Height                      : 688 pixels
Display aspect ratio        : 1.85:1
Frame rate mode             : Constant
Frame rate                  : 24.000 fps
Color space                 : YUV
Chroma subsampling          : 4:2:0
Bit depth                   : 8 bits
Scan type                   : Progressive
Bits/(Pixel*Frame)          : 0.178
Stream size                 : 2.30 GiB (90%)
Title                       : Оз: нашестя летючих мавп / Guardianes de Oz / Wicked Flying Monkeys (2015) 720p [UNIONGANG - ELEKTRI4KA]
Language                    : English
Default                     : Yes
Forced                      : No
DURATION                    : 01:27:21.296000000
NUMBER_OF_FRAMES            : 125791
NUMBER_OF_BYTES             : 2526050883
_STATISTICS_WRITING_APP     : mkvmerge v8.9.0 ('Father Daughter') 64bit
_STATISTICS_WRITING_DATE_UT : 2016-03-14 19:14:34
_STATISTICS_TAGS            : BPS DURATION NUMBER_OF_FRAMES NUMBER_OF_BYTES

Audio #1
ID                          : 2
Format                      : AC-3
Format/Info                 : Audio Coding 3
Mode extension              : CM (complete main)
Format settings, Endianness : Big
Codec ID                    : A_AC3
Duration                    : 1h 27mn
Bit rate mode               : Constant
Bit rate                    : 192 Kbps
Channel(s)                  : 2 channels
Channel positions           : Front: L R
Sampling rate               : 48.0 KHz
Compression mode            : Lossy
Stream size                 : 120 MiB (5%)
Title                       : Ukr Dub 2.0 192 kbps [Hurtom-Vasua95]
Language                    : Ukrainian
Default                     : Yes
Forced                      : No

Audio #2
ID                          : 3
Format                      : MPEG Audio
Format version              : Version 1
Format profile              : Layer 3
Mode                        : Joint stereo
Mode extension              : MS Stereo
Codec ID                    : A_MPEG/L3
Codec ID/Hint               : MP3
Duration                    : 1h 27mn
Bit rate mode               : Constant
Bit rate                    : 128 Kbps
Channel(s)                  : 2 channels
Sampling rate               : 44.1 KHz
Compression mode            : Lossy
Stream size                 : 80.0 MiB (3%)
Title                       : Original
Writing library             : LAME3.99.5
Language                    : Spanish
Default                     : No
Forced                      : No





Джерела та подяки: &
За українську доріжку подяка Vasua95




ЗАЛИШАЙТЕСЬ ЯКОМОГА ДОВШЕ НА РОЗДАЧІ!
СКАЧАВ САМ - ДАЙ СКАЧАТИ ІНШИМ


 Трекер:    Зареєстрований   

Завантажити / скачати мультфільм українською



відео для новачків



 Зареєстрований:   2016-03-14 22:26
 Розмір:   2.55 GB 
 Оцінка мультфільму:   2.9/10 (Голосів: 14)
   
Інші релізи
Anonymous 







2016-03-14 22:27  
Реліз оновлено - додав оригінальну доріжку.
Ваш часовий пояс: GMT + 2 Години

Нова тема   Відповісти