Джунглі Атлантиди / Jungle Atlantis (2014) 720p Ukr/Eng

Нові коментарі

Нова тема   Відповісти
Автор Повідомлення
AngryBirdsUA 
Свій


З нами з: 24.02.10
Востаннє: 22.10.17
Повідомлень: 3037

2016-03-13 12:46  
Джунглі Атлантиди / Jungle Atlantis (2014) 720p Ukr/Eng

Джунглі Атлантиди / Jungle Atlantis (2014) 720p Ukr/Eng


Жанр: документальний
Країна: Велика Британія



Кінокомпанія: British Broadcasting Corporation (BBC)
Сюжет:
Мільйони туристів відвідують Ангкор-Ват у Камбоджі щороку, щоб помилуватися на його чудовою архітектурою, але більшість з них, ймовірно, не знають, що, коли він був побудований близько 1000 років тому це було ще більш вражаючим. За допомогою технології дистанційного зондування, вчені тепер знають, що ховається під прилеглими рисовими полями і джунглями: мегаполіс з складною мережею будинків, каналів, бульварів і храмів, що охоплюють 30 квадратних кілометрів, де розташовувалися три чверті мільйона осіб.


Перелік серій:
Прихований мегаполіс Ангкор-Ват / Angkor Wat's Hidden Megacity
Загибель мегаполіса Ангкор-Ват / Death of Angkor Wat's Megacity

Тривалість: 2 x ~ 51 хв.
Якість: 720p (Hurtom)
Відео:
кодек:
розмір кадру: 1280 х 720
бітрейт: ~5000 кб/с

Аудіо # 1:
мова: українська
переклад: багатоголосий закадровий
кодек: 2.0
бітрейт: 192 кб/с

Аудіо # 2:
мова: англійська
переклад: оригінал
кодек: 2.0
бітрейт: ~100 кб/с

Джерело озвучення:
Info
General
Unique ID : 196756878109973625607757017201387631164 (0x9405FF0F96B562C0866A037BE14DF23C)
Complete name : E:\Jungle Atlantis (2014) 720p [Hurtom]\Angkor Wat's Hidden Megacity (2014) 720p [Ukr, Eng] [Hurtom].
Format :
Format version : Version 4 / Version 2
File size : 1.90 GiB
Duration : 51mn 44s
Overall bit rate : 5 261 Kbps
Encoded date : UTC 2016-03-13 08:58:04
Writing application : mkvmerge v7.8.0 ('River Man') 32bit built on Apr 3 2015 12:11:22
Writing library : libebml v1.3.1 + libmatroska v1.4.2

Video
ID : 1
Format : AVC
Format/Info : Advanced Video Codec
Format profile : [email protected]
Format settings, CABAC : Yes
Format settings, ReFrames : 4 frames
Codec ID : V_MPEG4/ISO/AVC
Duration : 51mn 44s
Bit rate : 4 970 Kbps
Width : 1 280 pixels
Height : 720 pixels
Display aspect ratio : 16:9
Frame rate mode : Constant
Frame rate : 50.000 fps
Color space : YUV
Chroma subsampling : 4:2:0
Bit depth : 8 bits
Scan type : Progressive
Bits/(Pixel*Frame) : 0.108
Stream size : 1.80 GiB (94%)
Default : Yes
Forced : No
Color range : Limited
Color primaries : BT.709
Transfer characteristics : BT.709
Matrix coefficients : BT.709

Audio #1
ID : 2
Format : AC-3
Format/Info : Audio Coding 3
Mode extension : CM (complete main)
Format settings, Endianness : Big
Codec ID : A_AC3
Duration : 51mn 44s
Bit rate mode : Constant
Bit rate : 192 Kbps
Channel(s) : 2 channels
Channel positions : Front: L R
Sampling rate : 48.0 KHz
Frame rate : 31.250 fps (1536 spf)
Compression mode : Lossy
Stream size : 71.1 MiB (4%)
Language : Ukrainian
Default : Yes
Forced : No

Audio #2
ID : 3
Format :
Format/Info : Advanced Audio Codec
Format profile : HE- / LC
Codec ID : A_AAC
Duration : 51mn 44s
Bit rate : 96.0 Kbps
Channel(s) : 2 channels
Channel positions : Front: L R
Sampling rate : 48.0 KHz / 24.0 KHz
Frame rate : 23.438 fps (1024 spf)
Compression mode : Lossy
Stream size : 35.1 MiB (2%)
Language : English
Default : No
Forced : No


Подяка за запис пану РОМЕО.
Підтримати купівлю інших фільмів можна тут.


Джерело:


Бронзовий реліз (на рейтинг впливає 75% завантаженого)
 Трекер:    Зареєстрований   

Завантажити / скачати фільм українською



відео для новачків



 Зареєстрований:   2016-03-13 12:46
 Розмір:   3.81 GB 
 Оцінка фільму:   5.9/10 (Голосів: 28)
   
Ua.bos_01 
VIP


З нами з: 22.06.15
Востаннє: 23.10.17
Повідомлень: 1421

2016-03-18 08:58  
Було дуже цікаво переглядати даний документальний фільм. Надзвичайно цікава історія Ангкор-Ват мене особисто дуже захоплює. Неймовірно, що тоді люди могли робити, і що робили, і як з ними вчинила доля. Мені проект сподобався. Шанувальникам якісної дослідницької документалістики раджу до перегляду.
hetzendorf 
Відео Гуртом - підтримка та поширення
Відео Гуртом - підтримка та поширення


З нами з: 23.07.15
Востаннє: 23.10.17
Повідомлень: 500

2016-08-27 14:23  
На жаль, у 2-й серії в середині десь близько 10 хвилин відсутня українська озвучка Sad (1)
Ваш часовий пояс: GMT + 2 Години

Нова тема   Відповісти