Прогулянки з динозаврами / Walking with Dinosaurs (2013) 3D 1080p [Half OverUnder] Ukr/Eng | Sub Ukr/Eng

Нові коментарі

Нова тема   Відповісти
Автор Повідомлення
-VipeR- 
VIP


З нами з: 17.07.08
Востаннє: 16.08.17
Повідомлень: 289

2016-03-13 11:39  
Прогулянки з динозаврами / Walking with Dinosaurs (2013) 3D 1080p [Half OverUnder] Ukr/Eng | Sub Ukr/Eng

Прогулянки з динозаврами / Walking with Dinosaurs (2013) 3D 1080p [Half OverUnder] Ukr/Eng | Sub Ukr/Eng


Жанр: анімація, пригодницький, сімейний
Країна: Великобританія, США, Індія



Кінокомпанія: Animal Logic, BBC Earth, BBC Worldwide, Evergreen Films, Reliance Big Entertainment
Режисер: Пьєр Де Лепінуа, Ніл Найтингейл
Актори: Чарлі Роу, Карл Урбан, Ангур Райс, Джон Легуізамо, Джастін Лонг, Скайлер Стоун, Тія Сіркар, Клей Севадж, Джуд Тінсел, Мері Метілін Маусер

Сюжет:
Стародавній світ доісторичних гігантів, що населяли колись нашу планету. Ви побачите, як динозаври полюють, виводять потомство і спілкуються один з одним...


Тривалість: 01:27:30
Якість: 1080p 3D [HalfOverUnder] [crop] Ash61
Відео:
кодек:
розмір кадру: 1920 х 1080
бітрейт: 17.8 мб/с
Зліва і справа обрізано по 248 пікселів, для перегляду на звичайних тв без чорних смуг

Аудіо # 1:
мова: українська
переклад: професійний дубльований
кодек: 5.1
бітрейт: 448 кб/с

Аудіо # 2:
мова: англійська
переклад: оригінал
кодек: 5.1
бітрейт: 640 кб/с

Джерело озвучення:


Субтитри:
мова: українська
тип: програмні (м'які)
формат: *.srt

Субтитри:
мова: англійська
тип: програмні (м'які)
формат: *.srt
Info
Код:
General
Unique ID                      : 242953467641461940491943304124381378021 (0xB6C722C6904AAD02B4AE2F528635B5E5)
Complete name                  : D:\3D\Walking With Dinosaurs (2013) 3D 1080p [HalfOverUnder] Crop (Ash61) [Ukr.Eng sub Ukr.Eng].
Format                         :
Format version                 : Version 4 / Version 2
File size                      : 11.8 GiB
Duration                       : 1h 27mn
Overall bit rate               : 19.3 Mbps
Movie name                     : Прогулки с динозаврами 3D / Walking with Dinosaurs 3D (2013) 3D
Encoded date                   : UTC 2016-03-07 13:40:18
Writing application            : mkvmerge v8.8.0 ('Wind at my back') 64bit
Writing library                : libebml v1.3.3 + libmatroska v1.4.4
DURATION                       : 01:20:36.954000000
NUMBER_OF_FRAMES               : 1464
NUMBER_OF_BYTES                : 55951
_STATISTICS_WRITING_APP        : mkvmerge v8.8.0 ('Wind at my back') 64bit
_STATISTICS_WRITING_DATE_UTC   : 2016-03-07 13:40:18
_STATISTICS_TAGS               : BPS DURATION NUMBER_OF_FRAMES NUMBER_OF_BYTES

Video
ID                             : 1
Format                         : AVC
Format/Info                    : Advanced Video Codec
Format profile                 : [email protected]
Format settings, CABAC         : Yes
Format settings, ReFrames      : 4 frames
Codec ID                       : V_MPEG4/ISO/AVC
Duration                       : 1h 27mn
Bit rate                       : 17.8 Mbps
Width                          : 1 920 pixels
Height                         : 1 080 pixels
Display aspect ratio           : 16:9
Frame rate mode                : Constant
Frame rate                     : 23.976 fps
Color space                    : YUV
Chroma subsampling             : 4:2:0
Bit depth                      : 8 bits
Scan type                      : Progressive
Bits/(Pixel*Frame)             : 0.359
Stream size                    : 10.9 GiB (92%)
Title                          : (Crop) by Ash61
Writing library                : core 129 r2245 bc13772
Encoding settings              : cabac=1 / ref=4 / deblock=1:-3:-3 / analyse=0x3:0x113 / me=umh / subme=10 / psy=1 / psy_rd=1.00:0.15 / mixed_ref=1 / me_range=32 / chroma_me=1 / trellis=2 / 8x8dct=1 / cqm=0 / deadzone=21,11 / fast_pskip=1 / chroma_qp_offset=-3 / threads=12 / lookahead_threads=2 / sliced_threads=0 / nr=0 / decimate=1 / interlaced=0 / bluray_compat=0 / constrained_intra=0 / bframes=9 / b_pyramid=2 / b_adapt=2 / b_bias=0 / direct=3 / weightb=1 / open_gop=0 / weightp=2 / keyint=250 / keyint_min=23 / scenecut=40 / intra_refresh=0 / rc_lookahead=60 / rc=crf / mbtree=1 / crf=17.0 / qcomp=0.70 / qpmin=0 / qpmax=69 / qpstep=4 / vbv_maxrate=40000 / vbv_bufsize=30000 / crf_max=0.0 / nal_hrd=none / frame-packing=4 / ip_ratio=1.40 / aq=1:0.70
Language                       : English
Default                        : Yes
Forced                         : No
DURATION                       : 01:27:30.871000000
NUMBER_OF_FRAMES               : 125895
NUMBER_OF_BYTES                : 11949012902
_STATISTICS_WRITING_APP        : mkvmerge v8.8.0 ('Wind at my back') 64bit
_STATISTICS_WRITING_DATE_UTC   : 2016-03-07 13:40:18
_STATISTICS_TAGS               : BPS DURATION NUMBER_OF_FRAMES NUMBER_OF_BYTES

Audio #1
ID                             : 2
Format                         : AC-3
Format/Info                    : Audio Coding 3
Mode extension                 : CM (complete main)
Format settings, Endianness    : Big
Codec ID                       : A_AC3
Duration                       : 1h 27mn
Bit rate mode                  : Constant
Bit rate                       : 448 Kbps
Channel count                  : 6 channels
Channel positions              : Front: L C R, Side: L R, LFE
Sampling rate                  : 48.0 KHz
Bit depth                      : 16 bits
Compression mode               : Lossy
Stream size                    : 280 MiB (2%)
Title                          : Дубляж - BD 3D
Language                       : Ukrainian
Default                        : Yes
Forced                         : No

Audio #2
ID                             : 3
Format                         : AC-3
Format/Info                    : Audio Coding 3
Mode extension                 : CM (complete main)
Format settings, Endianness    : Big
Codec ID                       : A_AC3
Duration                       : 1h 27mn
Bit rate mode                  : Constant
Bit rate                       : 640 Kbps
Channel count                  : 6 channels
Channel positions              : Front: L C R, Side: L R, LFE
Sampling rate                  : 48.0 KHz
Bit depth                      : 16 bits
Compression mode               : Lossy
Stream size                    : 401 MiB (3%)
Title                          : Original - BD 3D
Language                       : English
Default                        : No
Forced                         : No

Text #1
ID                             : 4
Format                         : UTF-8
Codec ID                       : S_TEXT/UTF8
Codec ID/Info                  : UTF-8 Plain Text
Language                       : Ukrainian
Default                        : Yes
Forced                         : No

Text #2
ID                             : 5
Format                         : UTF-8
Codec ID                       : S_TEXT/UTF8
Codec ID/Info                  : UTF-8 Plain Text
Language                       : English
Default                        : No
Forced                         : No

Menu
00:00:00.000                   : :1
00:01:52.528                   : :2
00:05:28.952                   : :3
00:07:35.745                   : :4
00:12:14.107                   : :5
00:14:54.976                   : :6
00:17:11.946                   : :7
00:18:38.366                   : :8
00:21:55.146                   : :9
00:24:38.518                   : :10
00:27:15.215                   : :11
00:28:35.963                   : :12
00:30:48.512                   : :13
00:33:06.401                   : :14
00:37:45.762                   : :15
00:42:10.318                   : :16
00:44:07.853                   : :17
00:47:43.860                   : :18
00:51:07.230                   : :19
00:52:58.800                   : :20
00:56:57.038                   : :21
00:58:28.755                   : :22
01:02:56.731                   : :23
01:06:53.384                   : :24
01:10:48.077                   : :25
01:17:02.242                   : :26
01:18:48.222                   : :27
01:20:23.568                   : :28
Скріншоти
Джерело: &

Відео для перегляду на 3D обладнанні!



 Трекер:    Зареєстрований   

Завантажити / скачати мультфільм українською



відео для новачків



 Зареєстрований:   2016-03-13 11:39
 Розмір:   11.8 GB 
 Оцінка мультфільму:   7.8/10 (Голосів: 4)
   
Ваш часовий пояс: GMT + 2 Години

Нова тема   Відповісти