Ноттінґ Гілл (Нотінґ-Хілл, Нотінг Хілл) / Notting Hill (1999) 720p 2xUkr/Eng | Sub Eng

Нові коментарі

Нова тема   Відповісти
Автор Повідомлення
Anonymous 







2016-03-13 01:31  
Ноттінґ Гілл / Notting Hill (1999) 720p 2xUkr/Eng | Sub Eng



Жанр: комедія, драма, романтичний
Країна: Велика Британія, США



Кінокомпанія: Polygram Filmed Entertainment, Working Title Films, Bookshop Productions, Notting Hill Pictures
Режисер: Роджер Мічелл / Roger Michell
Актори: Джулія Робертс / Julia Roberts, Г’ю Ґрант / Hugh Grant, Річард МакКейб / Richard McCabe, Ріс Іванс / Rhys Ifans, Джеймс Дрейфус / James Dreyfus, Ділан Моран / Dylan Moran, Роджер Фрост / Roger Frost, Генрі Ґудман / Henry Goodman, Джуліан Райнд-Татт / Julian Rhind-Tutt, Лорелей Кінґ / Lorelei King, Джон Шрапнел / John Shrapnel, Кларк Пітерс / Clarke Peters, Міша Бартон / Mischa Barton

Сюжет:
Життя простого власника книгарні змінюється, коли він зустрічає найвідомішу кінозірку в світі.


Рейтинг MPAA: PG-13 - дітям до 13 років перегляд не бажаний
Вікова категорія: 12+

Тривалість: 02:03:57
Якість: 720p
Відео:
кодек:
розмір кадру: 1280 х 544
бітрейт: 4538 кбіт/с [crf=16.7]

Аудіо # 1:
мова: українська
переклад: багатоголосий закадровий
ролі озвучили: Г'ю Ґрант — Володимир Терещук, Юрій Гребельник, Людмила Чиншева і ще один жіночий голос
кодек: 2.0
бітрейт: 192 кбіт/с

Аудіо # 2:
мова: українська
переклад: багатоголосий закадровий
кодек: 2.0 [стерео]
бітрейт: 192 кб/с

Аудіо # 3:
мова: англійська
переклад: оригінал
кодек: 5.1
бітрейт: 640 кбіт/с

Субтитри:
мова: англійська
тип: програмні (м'які)
формат: *.srt

Збережено оригінальні розділи, як на Blu-ray
Info
Код:

Complete name               : Notting Hill (1999) [2xUkr,Eng sub.Eng] 720p [Hurtom].
Format                      :
Format version              : Version 4
File size                   : 4.91 GiB
Duration                    : 2 h 3 min
Overall bit rate            : 5 671 kb/s
Movie name                  : Нотінг Хілл / Нотінґ Гілл / Notting Hill (1999) [2xUkr,Eng sub.Eng] 720p [Hurtom]
Encoded date                : UTC 2019-01-21 14:53:55
Writing application         : v30.1.0 ('Forever And More') 64-bit
Writing library             : libebml v1.3.6 + v1.4.9
Cover                       : Yes
Attachments                 : cover.jpg

Video
ID                          : 1
Format                      : AVC
Format/Info                 : Advanced Video Codec
Format profile              : [email protected]
Format settings             : CABAC / 9 Ref Frames
Format settings, CABAC      : Yes
Format settings, ReFrames   : 9 frames
Codec ID                    : V_MPEG4/ISO/AVC
Duration                    : 2 h 3 min
Bit rate                    : 4 535 kb/s
Width                       : 1 280 pixels
Height                      : 544 pixels
Display aspect ratio        : 2.35:1
Frame rate mode             : Constant
Frame rate                  : 23.976 (24000/1001) FPS
Color space                 : YUV
Chroma subsampling          : 4:2:0
Bit depth                   : 8 bits
Scan type                   : Progressive
Bits/(Pixel*Frame)          : 0.272
Stream size                 : 3.93 GiB (80%)
Title                       : Нотінг Хілл / Нотінґ Гілл / Notting Hill (1999) 720p [STarankov]
Writing library             : core 130 r2273 b3065e6
Encoding settings           : cabac=1 / ref=9 / deblock=1:-1:-1 / analyse=0x3:0x113 / me=umh / subme=9 / psy=1 / psy_rd=1.00:0.15 / mixed_ref=1 / me_range=24 / chroma_me=1 / trellis=2 / 8x8dct=1 / cqm=0 / deadzone=21,11 / fast_pskip=1 / chroma_qp_offset=-3 / threads=6 / lookahead_threads=1 / sliced_threads=0 / nr=0 / decimate=1 / interlaced=0 / bluray_compat=0 / constrained_intra=0 / bframes=8 / b_pyramid=2 / b_adapt=2 / b_bias=0 / direct=1 / weightb=0 / open_gop=0 / weightp=2 / keyint=230 / keyint_min=23 / scenecut=40 / intra_refresh=0 / rc=crf / mbtree=0 / crf=16.7 / qcomp=0.60 / qpmin=0 / qpmax=69 / qpstep=4 / ip_ratio=1.40 / pb_ratio=1.30 / aq=1:1.00
Language                    : English
Default                     : Yes
Forced                      : No

Audio #1
ID                          : 2
Format                      : AC-3
Format/Info                 : Audio Coding 3
Commercial name             : Dolby Digital
Codec ID                    : A_AC3
Duration                    : 2 h 3 min
Bit rate mode               : Constant
Bit rate                    : 192 kb/s
Channel(s)                  : 2 channels
Channel layout              : L R
Sampling rate               : 48.0 kHz
Frame rate                  : 31.250 FPS (1536 SPF)
Bit depth                   : 16 bits
Compression mode            : Lossy
Stream size                 : 170 MiB (3%)
Title                       : MVO [NLO.TV] 2.0 192 kbps [Hurtom-ninenine]
Language                    : Ukrainian
Service kind                : Complete Main
Default                     : Yes
Forced                      : No

Audio #2
ID                          : 3
Format                      : AC-3
Format/Info                 : Audio Coding 3
Commercial name             : Dolby Digital
Codec ID                    : A_AC3
Duration                    : 2 h 3 min
Bit rate mode               : Constant
Bit rate                    : 192 kb/s
Channel(s)                  : 2 channels
Channel layout              : L R
Sampling rate               : 48.0 kHz
Frame rate                  : 31.250 FPS (1536 SPF)
Bit depth                   : 16 bits
Compression mode            : Lossy
Stream size                 : 170 MiB (3%)
Title                       : MVO [Inter] 2.0 [stereo] 192 Kbps
Language                    : Ukrainian
Service kind                : Complete Main
Default                     : No
Forced                      : No

Audio #3
ID                          : 4
Format                      : AC-3
Format/Info                 : Audio Coding 3
Commercial name             : Dolby Digital
Codec ID                    : A_AC3
Duration                    : 2 h 3 min
Bit rate mode               : Constant
Bit rate                    : 640 kb/s
Channel(s)                  : 6 channels
Channel layout              : L R C LFE Ls Rs
Sampling rate               : 48.0 kHz
Frame rate                  : 31.250 FPS (1536 SPF)
Bit depth                   : 16 bits
Compression mode            : Lossy
Stream size                 : 567 MiB (11%)
Title                       : Original, 5.1 640 kbps
Language                    : English
Service kind                : Complete Main
Default                     : No
Forced                      : No

Text
ID                          : 5
Format                      : UTF-8
Codec ID                    : S_TEXT/UTF8
Codec ID/Info               : UTF-8 Plain Text
Language                    : English
Default                     : No
Forced                      : No

Menu
00:00:00.000                : en:1. Main Title - "She"
00:02:25.562                : en:2. William's Notting Hill
00:11:05.248                : en:3. Surreal, But Nice
00:23:07.970                : en:4. Horse & Hound
00:32:54.764                : en:5. Birthday Party
00:50:08.255                : en:6. A Date with Anna
00:54:41.778                : en:7. A Nasty Suprise
00:57:17.017                : en:8. She's Gone
01:06:28.902                : en:9. She's Back
01:18:05.431                : en:10. She's His
01:21:33.180                : en:11. Rude Awakening
01:28:04.946                : en:12. Ain't No Sunshine
01:34:25.201                : en:13. Hope on the Hearth
01:39:15.533                : en:14. Just a Girl
01:47:00.164                : en:15. The Right Decision
01:53:28.760                : en:16. Press Confrence
01:56:51.213                : en:17. The Meaning of My Life Is..."She"
01:59:56.439                : en:18. End Titles



Джерела та подяки: &
Подяки за українські доріжки: НЛО.ТБ - ninenine (синхронізація), РОМЕО (запис з ТБ); Інтер - drop_plz (синхронізація), Bohdan237 (запис з ТБ, DVB-T2). Фільмографії акторів та інформація про озвучення - Віктор (всі - Гуртом).

21.01.2019 реліз оновлено: додано озвучення з Інтера (стерео) та оригінальні поіменовані розділи з Blu-ray


Срібний реліз (на рейтинг впливає 50% завантаженого)
 Трекер:    Зареєстрований   

Завантажити / скачати фільм українською



відео для новачків



 Зареєстрований:   2019-01-21 17:20
 Розмір:   4.91 GB 
 Оцінка фільму:   7.4/10 (Голосів: 37)
   
Інші релізи
SHEVA1991 
Поважний учасник


З нами з: 29.11.12
Востаннє: 11.02.17
Повідомлень: 200

2016-03-13 09:19  
Дуже хороший фільм! Дуже дякую за реліз!!!
mancunian 
Частий відвідувач


З нами з: 23.10.11
Востаннє: 22.11.19
Повідомлень: 41

2016-03-20 09:22  
Дуже гарний фільм - не розумію чому такий низький рейтинг - ніби навмисне 10/10
Anonymous 







2016-03-20 09:45  
mancunian написано:
ніби навмисне

так і є, боти завелись і на Гуртом. мінусують всі релізи адміністрації та неугодних релізерів.

mancunian 
Частий відвідувач


З нами з: 23.10.11
Востаннє: 22.11.19
Повідомлень: 41

2016-03-20 09:51  
igor911
от є ж нації яким інші жить заважають

Anonymous 







2019-01-21 17:36  
Реліз оновлено: додано озвучення з Інтера (стерео) та оригінальні поіменовані розділи з Blu-ray.

Додано через 5 хвилин 53 секунди:

Переклад з Інтера дуже схожий на переклад від НЛО TV (мабуть просто замінили деякі слова), але голоси сподобались більше саме в доріжці від НЛО TV.

Ваш часовий пояс: GMT + 2 Години

Нова тема   Відповісти