Снігова битва / Snowtime! (2015) 720p Ukr/Eng

Нові коментарі

Нова тема   Відповісти
Автор Повідомлення
Anonymous 







2016-03-07 13:31  
Снігова битва / Snowtime! (2015) 720p Ukr/Eng



Жанр: анімація, комедія, сімейний
Країна: Канада



Кінокомпанія: CarpeDiem Film & TV
Режисер: Жан-Франсуа Пуле / Jean-François Pouliot, Франсуа Бріссон / François Brisson
Актори: Анджела Ґалуппо / Angela Galuppo, Марілуп Вульф / Mariloup Wolfe, Люсінда Девіс / Lucinda Davis, Ніколас Савард-Хербер / Nicholas Savard-L'Herbier, Софі Кадьо / Sophie Cadieux, Енн Касабонн / Anne Casabonne, Хелен Буржуа Леклерк / Hélène Bourgeois Leclerc, Катрін Трюдо / Catherine Trudeau та інші

Сюжет:
Зима – чудовий час для різноманітних ігор та веселощів! Щоб зайняти себе чимось під час зимових канікул, діти з маленького канадського села вирішують влаштувати грандіозне сніжне побоїще між двома командами. Нагородою переможцям послужать речі, дорогі кожному з них, які вони готові пожертвувати для учасників гри.

Через те, що зібрана нагорода вийшла вельми значною, діти втратили здоровий азарт, і перетворили змагання в жорстке побоїще. Чи зможуть вони вчасно зупинитися, не перейти межі?


Рейтинг MPAA: PG - рекомендується присутність батьків
Вікова категорія: 6+

Тривалість: 01:22:21
Якість: 720p
Відео:
кодек:
розмір кадру: 1280 х 536
бітрейт: 2873 кбіт/с [crf=16.2]

Аудіо # 1:
мова: українська
переклад: професійний дубльований
кодек: 2.0 (стерео)
бітрейт: 192 кбіт/с

Аудіо # 2:
мова: англійська
переклад: оригінал
кодек: 5.1
бітрейт: 640 кбіт/с

Збережено оригінальні розділи, як на Blu-ray.
Info та log
Код:
General
Unique ID                   : 230847829246532242780122279819781810513 (0xADABACB8C37B4718857603A8613B2951)
Complete name               : Snowtime! (2015) [Ukr,Eng] 720p [Hurtom].
Format                      :
Format version              : Version 4 / Version 2
File size                   : 2.17 GiB
Duration                    : 1h 22mn
Overall bit rate            : 3 780 Kbps
Movie name                  : Снігова битва / Snowtime! (2015) [Ukr,Eng] 720p [Hurtom-igor911]
Encoded date                : UTC 2016-03-07 09:41:03
Writing application         : mkvmerge v8.9.0 ('Father Daughter') 64bit
Writing library             : libebml v1.3.3 + libmatroska v1.4.4
Attachements                : cover.jpg / x264log.txt
DURATION                    : 01:22:21.696000000
NUMBER_OF_FRAMES            : 154428
NUMBER_OF_BYTES             : 118600704
_STATISTICS_WRITING_APP     : mkvmerge v8.9.0 ('Father Daughter') 64bit
_STATISTICS_WRITING_DATE_UT : 2016-03-07 09:41:03
_STATISTICS_TAGS            : BPS DURATION NUMBER_OF_FRAMES NUMBER_OF_BYTES

Video
ID                          : 1
Format                      : AVC
Format/Info                 : Advanced Video Codec
Format profile              : [email protected]
Format settings, CABAC      : Yes
Format settings, ReFrames   : 9 frames
Codec ID                    : V_MPEG4/ISO/AVC
Duration                    : 1h 22mn
Bit rate                    : 2 873 Kbps
Width                       : 1 280 pixels
Height                      : 536 pixels
Display aspect ratio        : 2.40:1
Frame rate mode             : Constant
Frame rate                  : 23.976 fps
Color space                 : YUV
Chroma subsampling          : 4:2:0
Bit depth                   : 8 bits
Scan type                   : Progressive
Bits/(Pixel*Frame)          : 0.175
Stream size                 : 1.65 GiB (76%)
Title                       : Снігова битва / Snowtime! (2015) 720p [rutracker]
Writing library             : core 148 r2638kMod 7599210
Encoding settings           : cabac=1 / ref=9 / deblock=1:-3:-2 / analyse=0x3:0x133 / me=umh / subme=11 / psy=1 / fade_compensate=0.00 / psy_rd=1.00:0.05 / mixed_ref=1 / me_range=48 / chroma_me=1 / trellis=2 / 8x8dct=1 / cqm=0 / deadzone=21,11 / fast_pskip=0 / chroma_qp_offset=-3 / threads=12 / lookahead_threads=3 / sliced_threads=0 / nr=0 / decimate=1 / interlaced=0 / bluray_compat=0 / constrained_intra=0 / fgo=0 / bframes=10 / b_pyramid=2 / b_adapt=2 / b_bias=0 / direct=3 / weightb=1 / open_gop=0 / weightp=2 / keyint=250 / keyint_min=23 / scenecut=40 / intra_refresh=0 / rc_lookahead=60 / rc=crf / mbtree=0 / crf=16.2000 / qcomp=0.60 / qpmin=0 / qpmax=69 / qpstep=4 / vbv_maxrate=50000 / vbv_bufsize=62500 / crf_max=0.0 / nal_hrd=none / filler=0 / ip_ratio=1.40 / pb_ratio=1.30 / aq=3:0.90
Language                    : English
Default                     : Yes
Forced                      : No
DURATION                    : 01:22:20.936000000
NUMBER_OF_FRAMES            : 118464
NUMBER_OF_BYTES             : 1819681705
_STATISTICS_WRITING_APP     : mkvmerge v8.9.0 ('Father Daughter') 64bit
_STATISTICS_WRITING_DATE_UT : 2016-03-07 09:41:03
_STATISTICS_TAGS            : BPS DURATION NUMBER_OF_FRAMES NUMBER_OF_BYTES

Audio #1
ID                          : 2
Format                      : AC-3
Format/Info                 : Audio Coding 3
Mode extension              : CM (complete main)
Format settings, Endianness : Big
Codec ID                    : A_AC3
Duration                    : 1h 22mn
Bit rate mode               : Constant
Bit rate                    : 192 Kbps
Channel(s)                  : 2 channels
Channel positions           : Front: L R
Sampling rate               : 48.0 KHz
Compression mode            : Lossy
Stream size                 : 113 MiB (5%)
Title                       : Dub 2.0 192 kbps [ Hurtom-Vasua95]
Language                    : Ukrainian
Default                     : Yes
Forced                      : No

Audio #2
ID                          : 3
Format                      : AC-3
Format/Info                 : Audio Coding 3
Mode extension              : CM (complete main)
Format settings, Endianness : Big
Codec ID                    : A_AC3
Duration                    : 1h 22mn
Bit rate mode               : Constant
Bit rate                    : 640 Kbps
Channel(s)                  : 6 channels
Channel positions           : Front: L C R, Side: L R, LFE
Sampling rate               : 48.0 KHz
Compression mode            : Lossy
Stream size                 : 377 MiB (17%)
Title                       : Original 5.1 640 kbps
Language                    : English
Default                     : No
Forced                      : No

Menu
00:00:00.000                : en:00:00:00.000
00:04:39.112                : en:00:04:39.112
00:09:17.640                : en:00:09:17.640
00:17:37.974                : en:00:17:37.974
00:22:18.879                : en:00:22:18.879
00:28:09.688                : en:00:28:09.688
00:31:41.358                : en:00:31:41.358
00:36:09.376                : en:00:36:09.376
00:44:13.860                : en:00:44:13.860
00:47:54.121                : en:00:47:54.121
00:53:04.264                : en:00:53:04.264
00:58:45.564                : en:00:58:45.564
01:03:37.230                : en:01:03:37.230
01:07:00.433                : en:01:07:00.433
01:14:14.992                : en:01:14:14.992
01:19:07.451                : en:01:19:07.451


Код:
[info]: frame I:1282 Avg QP:12.77 size:118623
[info]: frame P:27822 Avg QP:14.39 size: 29727
[info]: frame B:89360 Avg QP:17.10 size: 9406
[info]: consecutive B-frames: 3.0% 3.3% 12.8% 25.1% 12.7% 36.3% 2.7% 1.4% 1.1% 0.5% 1.2%
[info]: mb I I16..4: 7.3% 60.0% 32.7%
[info]: mb P I16..4: 0.8% 10.5% 2.3% P16..4: 22.0% 21.6% 12.7% 3.6% 0.6% skip:25.9%
[info]: mb B I16..4: 0.2% 1.7% 0.3% B16..8: 22.6% 15.7% 3.7% direct: 4.4% skip:51.5% L0:40.2% L1:43.8% BI:16.0%
[info]: 8x8 transform intra:74.2% inter:40.4%
[info]: direct mvs spatial:100.0% temporal:0.0%
[info]: coded y,uvDC,uvAC intra: 88.8% 77.6% 62.3% inter: 16.2% 9.8% 4.1%
[info]: i16 v,h,dc,p: 30% 17% 14% 40%
[info]: i8 v,h,dc,ddl,ddr,vr,hd,vl,hu: 13% 13% 11% 8% 10% 10% 11% 11% 14%
[info]: i4 v,h,dc,ddl,ddr,vr,hd,vl,hu: 14% 11% 9% 8% 14% 12% 12% 10% 11%
[info]: i8c dc,h,v,p: 39% 32% 17% 12%
[info]: Weighted P-Frames: Y:1.5% UV:0.8%
[info]: ref P L0: 54.9% 8.1% 15.9% 5.9% 4.5% 3.6% 2.9% 1.9% 1.8% 0.5% 0.0%
[info]: ref B L0: 75.9% 11.0% 5.3% 2.7% 2.1% 1.6% 1.1% 0.3%
[info]: ref B L1: 92.6% 7.4%
[info]: kb/s:2946.29
[total]: encoded 118464 frames, 10.57 fps, 2946.29 kb/s, duration 3:06:44.36




Джерела та подяки: &
За українську доріжку подяка Vasua95


Підтримати купівлю нових озвучень можна тут



ЗАЛИШАЙТЕСЬ ЯКОМОГА ДОВШЕ НА РОЗДАЧІ!

СКАЧАВ САМ - ДАЙ СКАЧАТИ ІНШИМ


 Трекер:    Зареєстрований   

Завантажити / скачати мультфільм українською



відео для новачків



 Зареєстрований:   2016-03-07 13:31
 Розмір:   2.17 GB 
 Оцінка мультфільму:   5.3/10 (Голосів: 21)
   
Інші релізи
   Снігова битва / Snowtime! (2015) AngryBirdsUA  9 / 0   1.38 GB   2016-03-06 18:17 
   Снігова битва / Snowtime! (2015) AVC AngryBirdsUA  1 / 0   1.42 GB   2016-03-06 18:17 
vovang6 
Свій


З нами з: 27.08.12
Востаннє: 12.08.17
Повідомлень: 90

2016-03-19 17:10  
Щось я не зрозумiв цей мультик. На 4 з 10.
Ваш часовий пояс: GMT + 2 Години

Нова тема   Відповісти