Біла королева (Сезон 1) / The White Queen (Season 1) (2013) 720p Ukr/Eng

Нові коментарі

Нова тема   Відповісти
Автор Повідомлення
krigg070 
Відео Гуртом - фільмокрай
Відео Гуртом - фільмокрай


З нами з: 29.10.14
Востаннє: 30.11.20
Повідомлень: 1818

2016-03-04 19:29  
Біла королева (Сезон 1) / The White Queen (Season 1) (2013) 720p Ukr/Eng


Жанр: історична драма
Країна: Велика Британія, Франція



Кінокомпанія / телеканал: BBC Drama Productions, BNP Paribas Fortis Film Fund, Company Pictures
Режисер: Колін Тіг, Джеймс Кент, Джемі Пейн
Актори: Анейрін Барнард, Ребекка Фергюсон, Аманда Хейл, Фей Марс, Макс Айронс, Бен Лемб, Том МакКей, Джульєтт Обрі, Девід Оукс, Елінор Томлінсон та інші

Сюжет:
Серіал знято за мотивами однойменного роману британської письменниці-романістки Філіппи Грегорі.
Дія розгортається у XV столітті в Англії. У центрі сюжету - боротьба за англійський престол між впливовими династіями, що отримала назву війна Червоної та Білої троянд і тривала не одне десятиліття.
У цій боротьбі брали участь не тільки чоловіки. Три молоді, але сильні жінки - Єлизавета Вудвіль, Анна Невілл і Маргарита Бофорт - вели свою гру за владу. Кожна з цих підступних дам у боротьбі за Корону готова була піти на все.
Жорсткі звичаї середньовіччя, любов, зрада, дружба, ненависть - все це йшло у хід в битві за англійський трон.

Тривалість: 1 серія: ~60 хв. (цілком серій: 10)
Перелік серій
    01. Season 1. Episode 1: In Love With the King
    02. Season 1. Episode 2: The Price of Power
    03. Season 1. Episode 3: The Storm
    04. Season 1. Episode 4: The Bad Queen
    05. Season 1. Episode 5: War at First Hand
    06. Season 1. Episode 6: Love and Death
    07. Season 1. Episode 7: Poison and Malmsey Wine
    08. Season 1. Episode 8: The King Is Dead
    09. Season 1. Episode 9: The Princes in the Tower
    10. Season 1. Episode 10: The Final Battle
Якість: 720p
Відео:
кодек:
розмір кадру: 1280 х 720
бітрейт: ~6500 кб/с

Аудіо # 1:
мова: українська
переклад: багатоголосий закадровий
кодек: 2.0
бітрейт: 192 кб/с

Аудіо # 2:
мова: англійська
переклад: оригінал
кодек: 5.1
бітрейт: 448 кб/с
Скріншоти
Info
Код:
General
Unique ID                      : 202824322171171279959018036618649649527 (0x98968B26387A1766B65D38B93A8BC177)
Complete name                  : C:\Users\krigg\Videos\The White Queen (2013) Season 01 720p [UKR_ENG] [Hurtom]\The.White.Queen.2013.S01E01..720p.UKR_ENG.
Format                         :
Format version                 : Version 2
File size                      : 2.92 GiB
Duration                       : 58mn 24s
Overall bit rate               : 7 164 Kbps
Movie name                     : Біла королева | Сезон 1. Епізод 1: In Love With the King
Encoded date                   : UTC 2016-03-03 20:20:42
Writing application            : v3.3.0 ('Language') built on Mar 24 2010 14:59:24
Writing library                : libebml v0.8.0 + v0.9.0

Video
ID                             : 1
Format                         : AVC
Format/Info                    : Advanced Video Codec
Format profile                 : [email protected]
Format settings, CABAC         : Yes
Format settings, ReFrames      : 5 frames
Codec ID                       : V_MPEG4/ISO/AVC
Duration                       : 58mn 24s
Bit rate                       : 6 526 Kbps
Width                          : 1 280 pixels
Height                         : 720 pixels
Display aspect ratio           : 16:9
Frame rate mode                : Constant
Frame rate                     : 25.000 fps
Color space                    : YUV
Chroma subsampling             : 4:2:0
Bit depth                      : 8 bits
Scan type                      : Progressive
Bits/(Pixel*Frame)             : 0.283
Stream size                    : 2.60 GiB (89%)
Writing library                : core 142 r2389 956c8d8
Encoding settings              : cabac=1 / ref=5 / deblock=1:0:0 / analyse=0x3:0x133 / me=umh / subme=7 / psy=1 / psy_rd=1.00:0.00 / mixed_ref=1 / me_range=16 / chroma_me=1 / trellis=1 / 8x8dct=1 / cqm=0 / deadzone=21,11 / fast_pskip=0 / chroma_qp_offset=-2 / threads=6 / lookahead_threads=1 / sliced_threads=0 / nr=0 / decimate=1 / interlaced=0 / bluray_compat=0 / constrained_intra=0 / bframes=3 / b_pyramid=2 / b_adapt=2 / b_bias=0 / direct=3 / weightb=1 / open_gop=0 / weightp=2 / keyint=250 / keyint_min=25 / scenecut=40 / intra_refresh=0 / rc_lookahead=50 / rc=2pass / mbtree=1 / bitrate=6526 / ratetol=1.0 / qcomp=0.60 / qpmin=0 / qpmax=69 / qpstep=4 / cplxblur=20.0 / qblur=0.5 / ip_ratio=1.40 / aq=1:1.00
Language                       : English
Default                        : Yes
Forced                         : No

Audio #1
ID                             : 2
Format                         : AC-3
Format/Info                    : Audio Coding 3
Mode extension                 : CM (complete main)
Format settings, Endianness    : Big
Codec ID                       : A_AC3
Duration                       : 58mn 24s
Bit rate mode                  : Constant
Bit rate                       : 192 Kbps
Channel(s)                     : 2 channels
Channel positions              : Front: L R
Sampling rate                  : 48.0 KHz
Frame rate                     : 31.250 fps (1536 spf)
Compression mode               : Lossy
Stream size                    : 80.2 MiB (3%)
Title                          : Інтер
Language                       : Ukrainian
Default                        : Yes
Forced                         : No

Audio #2
ID                             : 3
Format                         : AC-3
Format/Info                    : Audio Coding 3
Mode extension                 : CM (complete main)
Format settings, Endianness    : Big
Codec ID                       : A_AC3
Duration                       : 58mn 24s
Bit rate mode                  : Constant
Bit rate                       : 448 Kbps
Channel(s)                     : 6 channels
Channel positions              : Front: L C R, Side: L R, LFE
Sampling rate                  : 48.0 KHz
Frame rate                     : 31.250 fps (1536 spf)
Compression mode               : Lossy
Stream size                    : 187 MiB (6%)
Title                          : Original
Language                       : English
Default                        : No
Forced                         : No

Menu
00:00:00.000                   : en:00:00:00.000
00:10:12.400                   : en:00:10:12.400
00:22:10.200                   : en:00:22:10.200
00:29:25.000                   : en:00:29:25.000
00:40:04.400                   : en:00:40:04.400
00:49:20.000                   : en:00:49:20.000

Джерело:
Особиста оцінка: 0 - не дивився

Цитата:
За записи з ТБ подяка Xottabi4007 (ex.ua), POMEO, slavik_v_z
За українські доріжки до серій 2-10 подяка slavik_v_z


Бронзовий реліз (на рейтинг впливає 75% завантаженого)
 Трекер:    Зареєстрований   

Завантажити / скачати серіал українською



відео для новачків



 Зареєстрований:   2016-03-13 20:36
 Розмір:   29.21 GB 
 Оцінка серіалу:   9.8/10 (Голосів: 15)
   
respect14 
VIP


З нами з: 26.01.11
Востаннє: 28.11.20
Повідомлень: 594

2016-03-05 22:38  
А звичайний БДріп буде?
krigg070 
Відео Гуртом - фільмокрай
Відео Гуртом - фільмокрай


З нами з: 29.10.14
Востаннє: 30.11.20
Повідомлень: 1818

2016-03-06 17:24  
respect14 написано:
А звичайний БДріп буде?

krigg070 написано:
Реліз продубльований на ex.ua

Шукайте у мене на сторінці ex.ua (нікнейм такий самий як на толоці)

igor911 
Модератор відео


З нами з: 18.01.08
Востаннє: 30.11.20
Повідомлень: 15083

2016-03-06 17:26  
respect14 написано:
А звичайний БДріп буде?

Ось є https://toloka.to/t72276

krigg070 
Відео Гуртом - фільмокрай
Відео Гуртом - фільмокрай


З нами з: 29.10.14
Востаннє: 30.11.20
Повідомлень: 1818

2016-03-06 17:27  
Тим більше уже є реліз у SD.
krigg070 
Відео Гуртом - фільмокрай
Відео Гуртом - фільмокрай


З нами з: 29.10.14
Востаннє: 30.11.20
Повідомлень: 1818

2016-03-13 20:41  
Додано 3-10 серії та замінено українську доріжку у 2 серії.

Ваш часовий пояс: GMT + 2 Години

Нова тема   Відповісти