Місто мрії (Сезон 2) / Magic City (Season 2) (2013) 720p Ukr/Eng

Нові коментарі

Нова тема   Відповісти
Автор Повідомлення
krigg070 
Відео Гуртом - фільмокрай
Відео Гуртом - фільмокрай


З нами з: 29.10.14
Востаннє: 03.12.20
Повідомлень: 1819

2016-03-03 00:21  
Місто мрії (Сезон 2) / Magic City (Season 2) (2013) 720p Ukr/Eng


Жанр: драма, кримінальний
Країна: США



Кінокомпанія / телеканал: Starz
Режисер: Едвард Б'янчі, Саймон Селлан Джоунс, Девід Петрарка та інші
Актори: Джеффрі Дін Морган, Ольга Куриленко, Стівен Стрейт, Джессіка Маре, Денні Хьюстон, Крістіан Кук, Олена Сатине, Домінік Гарсіа-Лорідо та інші

Сюжет:
8-серійна драма про найгламурніший готель Маямі кінця 1950-х років.
"Місто мрії" переносить телеглядачів до 1959 ріку в найрозкішніший заклад Маямі-Біч - готель "Мірамар". Вдень у цьому закладі можна зустріти забавних клоунів і любителів потанцювати ча-ча-ча, а вночі він стає притулком для гангстерів, наркодилерів і агентів ФБР...
В одній з головних ролей у картині знялася голлівудська актриса українського походження Ольга Куриленко.


Тривалість: 1 серія: ~ 50 хв. (цілком серій: 8)
Перелік серій
    01. Season 2. Episode 1: Crime and Punishment
    02. Season 2. Episode 2: Angels of Death
    03. Season 2. Episode 3: Adapt or Die
    04. Season 2. Episode 4: Crossroads
    05. Season 2. Episode 5: World in Changes
    06. Season 2. Episode 6: Sitting on Top of the World
    07. Season 2. Episode 7: ... And Your Enemies Closer
    08. Season 2. Episode 8: The Sins of the Father
Якість:
Відео:
кодек:
розмір кадру: 1 280 х 720
бітрейт: ~ 5400 кб/с

Аудіо # 1:
мова: українська
переклад: багатоголосий закадровий
кодек: 2.0
бітрейт: 192 кб/с
примітка: є неозвучені моменти (так транслював телеканал)

Аудіо # 2:
мова: англійська
переклад: оригінал
кодек: 5.1
бітрейт: 640 кб/с
Скріншоти
Info
Код:
General
Unique ID                      : 251874921809381381667742997159180560985 (0xBD7D586D22E60A7EB691404248C0EA59)
Complete name                  : C:\Users\krigg\Videos\Magic City Season 2 (2013) 720p [UKR_ENG] [Hurtom]\Magic City (2013) S02E02 720p [Ukr, Eng] [Hurtom].
Format                         :
Format version                 : Version 2
File size                      : 2.25 GiB
Duration                       : 51mn 34s
Overall bit rate               : 6 249 Kbps
Movie name                     : Місто мрії (2013) | Сезон 2. Епізод 2: Angels of Death
Encoded date                   : UTC 2016-02-28 12:09:16
Writing application            : v3.3.0 ('Language') built on Mar 24 2010 14:59:24
Writing library                : libebml v0.8.0 + v0.9.0

Video
ID                             : 1
Format                         : AVC
Format/Info                    : Advanced Video Codec
Format profile                 : [email protected]
Format settings, CABAC         : Yes
Format settings, ReFrames      : 5 frames
Codec ID                       : V_MPEG4/ISO/AVC
Duration                       : 51mn 34s
Bit rate                       : 5 416 Kbps
Width                          : 1 280 pixels
Height                         : 720 pixels
Display aspect ratio           : 16:9
Frame rate mode                : Constant
Frame rate                     : 23.976 fps
Color space                    : YUV
Chroma subsampling             : 4:2:0
Bit depth                      : 8 bits
Scan type                      : Progressive
Bits/(Pixel*Frame)             : 0.245
Stream size                    : 1.91 GiB (85%)
Writing library                : core 133 r2334 a3ac64b
Encoding settings              : cabac=1 / ref=5 / deblock=1:0:0 / analyse=0x3:0x133 / me=umh / subme=7 / psy=1 / psy_rd=1.00:0.00 / mixed_ref=1 / me_range=16 / chroma_me=1 / trellis=1 / 8x8dct=1 / cqm=0 / deadzone=21,11 / fast_pskip=0 / chroma_qp_offset=-2 / threads=12 / lookahead_threads=2 / sliced_threads=0 / nr=0 / decimate=1 / interlaced=0 / bluray_compat=0 / constrained_intra=0 / bframes=3 / b_pyramid=2 / b_adapt=1 / b_bias=0 / direct=1 / weightb=1 / open_gop=0 / weightp=2 / keyint=250 / keyint_min=23 / scenecut=40 / intra_refresh=0 / rc_lookahead=40 / rc=2pass / mbtree=1 / bitrate=5416 / ratetol=1.0 / qcomp=0.60 / qpmin=0 / qpmax=69 / qpstep=4 / cplxblur=20.0 / qblur=0.5 / ip_ratio=1.40 / aq=1:1.00
Language                       : English
Default                        : No
Forced                         : No

Audio #1
ID                             : 2
Format                         : AC-3
Format/Info                    : Audio Coding 3
Mode extension                 : CM (complete main)
Format settings, Endianness    : Big
Codec ID                       : A_AC3
Duration                       : 51mn 34s
Bit rate mode                  : Constant
Bit rate                       : 192 Kbps
Channel(s)                     : 2 channels
Channel positions              : Front: L R
Sampling rate                  : 48.0 KHz
Frame rate                     : 31.250 fps (1536 spf)
Compression mode               : Lossy
Stream size                    : 70.8 MiB (3%)
Title                          : Інтер
Language                       : Ukrainian
Default                        : Yes
Forced                         : No

Audio #2
ID                             : 3
Format                         : AC-3
Format/Info                    : Audio Coding 3
Mode extension                 : CM (complete main)
Format settings, Endianness    : Big
Codec ID                       : A_AC3
Duration                       : 51mn 34s
Bit rate mode                  : Constant
Bit rate                       : 640 Kbps
Channel(s)                     : 6 channels
Channel positions              : Front: L C R, Side: L R, LFE
Sampling rate                  : 48.0 KHz
Frame rate                     : 31.250 fps (1536 spf)
Compression mode               : Lossy
Stream size                    : 236 MiB (10%)
Title                          : Original
Language                       : English
Default                        : No
Forced                         : No

Menu
00:00:00.000                   : en:00:00:00.000
00:01:25.502                   : en:00:01:25.502
00:02:57.177                   : en:00:02:57.177
00:11:07.500                   : en:00:11:07.500
00:19:29.043                   : en:00:19:29.043
00:30:18.358                   : en:00:30:18.358
00:39:35.498                   : en:00:39:35.498
00:50:16.013                   : en:00:50:16.013

Цитата:
Реліз продубльований на ex.ua

Джерело:
Особиста оцінка: 0 - не дивився

За записи з ТБ подяка Xottabi4007 (ex.ua)


Бронзовий реліз (на рейтинг впливає 75% завантаженого)
 Трекер:    Зареєстрований   

Завантажити / скачати серіал українською



відео для новачків



 Зареєстрований:   2016-03-03 00:21
 Розмір:   18.01 GB 
 Оцінка серіалу:   10/10 (Голосів: 2)
   
Slavchik_ua 
Частий відвідувач


З нами з: 16.01.16
Востаннє: 03.12.20
Повідомлень: 34

2016-03-06 12:51  
Дуже дякую, чекав. Гарна робота. Роздаю.
don pedro 
Попереджень: 1
Попереджень: 1 


З нами з: 29.06.11
Востаннє: 03.12.20
Повідомлень: 18240

2016-03-13 01:20  
Мабуть, краща роль Джеффрі Діна Моргана та Ольги Куріленко.
zveruga 
Свій


З нами з: 28.07.08
Востаннє: 03.12.20
Повідомлень: 55

2019-07-01 18:35  
Люди, будь ласка, поверніться на роздачу, а то перший сезон цього серіалу завантажив, а другий ніяк не можу. А хотілось би подивитися в гарній якості і з однаковим перекладом.
P.S. Буду стояти на роздачі першого і другого сезонів по максимумі.

Ваш часовий пояс: GMT + 2 Години

Нова тема   Відповісти