Вадим Неселовський (Vadim Neselovskyi) | Дискографія (3CD) (2007-2018) [] | Contemporary Jazz

Нові коментарі

Нова тема   Відповісти
Автор Повідомлення
kolpavel 
VIP


З нами з: 04.05.14
Востаннє: 22.07.19
Повідомлень: 1252

2016-03-01 18:05  
Вадим Неселовський (Vadim Neselovskyi) | Дискографія (3CD) (2007-2018) [] | Contemporary Jazz

Вадим Неселовський (Vadim Neselovskyi) | Дискографія (3CD) (2007-2018) [] | Contemporary Jazz


Стиль: Contemporary Jazz, Piano, Improvisation, Classical
Країна, місто: Україна, Одеса
Сайти: Офіційний сайт
Видавець: VN Music / Sunnyside Records / Tzadik
Виконавці:
Вадим Неселовський

Альбоми:
    2007 - Spring Song

    Вадим Неселовський (Vadim Neselovskyi) | Дискографія (3CD) (2007-2018) [] | Contemporary Jazz


    Треклист:

    01. Song for vera
    02. Who is it?
    03. Last snow
    04. Spring song
    05. Even birds can fly
    06. Prosti, zdenek
    07. Prelude for vibes
    08. San felio

    Тривалість: 00:49:30
    Мова: інструментальні композиції
    Аудіо-кодек:
    Бітрейт: 573 кб/с
    Видавець: VN Music
    EAC log
    Exact Audio Copy V0.99 prebeta 5 from 4. May 2009

    EAC extraction logfile from 29. November 2009, 11:43

    Vadim Neselovskyi / Spring Song

    Used drive : ASUS DRW-1608P3S Adapter: 0 ID: 0

    Read mode : Secure
    Utilize accurate stream : Yes
    Defeat audio cache : Yes
    Make use of C2 pointers : No

    Read offset correction : 48
    Overread into Lead-In and Lead-Out : No
    Fill up missing offset samples with silence : Yes
    Delete leading and trailing silent blocks : No
    Null samples used in CRC calculations : Yes
    Used interface : Native Win32 interface for Win NT & 2000

    Used output format : User Defined Encoder
    Selected bitrate : 768 kBit/s
    Quality : High
    Add ID3 tag : No
    Command line compressor : C:\Program Files\Exact Audio Copy\\.EXE
    Additional command line options : -T "DATE=%y" -T "GENRE=%m" -8 -V %s

    TOC of the extracted CD

    Track | Start | Length | Start sector | End sector
    ---------------------------------------------------------
    1 | 0:00.00 | 8:00.67 | 0 | 36066
    2 | 8:00.67 | 5:05.38 | 36067 | 58979
    3 | 13:06.30 | 7:17.03 | 58980 | 91757
    4 | 20:23.33 | 5:31.60 | 91758 | 116642
    5 | 25:55.18 | 6:00.28 | 116643 | 143670
    6 | 31:55.46 | 7:26.15 | 143671 | 177135
    7 | 39:21.61 | 3:56.46 | 177136 | 194881
    8 | 43:18.32 | 6:11.74 | 194882 | 222780

    Range status and errors

    Selected range

    Filename C:\Temp\Vadim Neselovskyi - Spring Song\Vadim Neselovskyi - Spring Song.wav

    Peak level 100.0 %
    Range quality 100.0 %
    Test CRC BAE088D3
    Copy CRC BAE088D3
    Copy OK

    No errors occurred

    End of status report
    2013 - Music for September

    Вадим Неселовський (Vadim Neselovskyi) | Дискографія (3CD) (2007-2018) [] | Contemporary Jazz


    Треклист:

    01. Spring Song (Neselovskyi)
    02. Mazurka Op. 67 No. 4 (Chopin)
    03. All The Things You Are (Kern)
    04. Sinfonia No. 11 In G Minor BWV 797 (Bach)
    05. Birdlike (Hubbard)
    06. Body And Soul (Green/Heyman/Sour/Eyton)
    07. San Felio (Neselovskyi)
    08. My Romance (Rodgers/Hart)
    09. Andantino In Modo De Canzona (Tchaikovsky)
    10. Epilogue (Neselovskyi)

    Виконавці:

    Вадим Неселовський - фортепiано
    Pedro Ito - барабани, перкусія
    Oleg Osenkov - контрабас
    Eric Bloom - труба
    Amanda Baisinger - вокал

    Тривалість: 00:51:42
    Мова: інструментальні композиції окрiм (9)-росiйська.
    Аудіо-кодек:
    Бітрейт: 301-405 кб/с
    Видавець: Sunnyside Records (№ за каталогом SSC1342)
    лог якостi
    -----------------------

    DON'T MODIFY THIS FILE

    -----------------------

    PERFORMER: auCDtect Task Manager, ver. 1.5.1RC4 build 1.5.1.5
    Copyright (c) 2008-2010 y-soft. All rights reserved

    ANALYZER: auCDtect: CD records authenticity detector, version 0.8.2
    Copyright (c) 2004 Oleg Berngardt. All rights reserved.
    Copyright (c) 2004 Alexander Djourik. All rights reserved.

    FILE: 10 - Epilogue.
    Size: 3060666 Hash: 31C6BFD5E3F20BB54EA57803402E51E8 Accuracy: -m0
    Conclusion: CDDA 100%
    Signature: BCA04A960E39059AC67A733A7C6E803CF63517F4
    FILE: 09 - Andantino in modo di canzona.
    Size: 8557472 Hash: B1F1C7B3B6EF1ABDA83A52C4DB63AF6B Accuracy: -m0
    Conclusion: CDDA 100%
    Signature: 52F9147BDCEED9B4D252FB13BCF314B38F28BC88
    FILE: 08 - My Romance.
    Size: 15581188 Hash: 4BC73ECC1CCD60E94B797F26AAD96806 Accuracy: -m0
    Conclusion: CDDA 87%
    Signature: 81336C8CA1A756D02631B14E301DE182A207CE03
    FILE: 07 - San Felio.
    Size: 20905897 Hash: 18206226A478296330CD100B5ADE5ECC Accuracy: -m0
    Conclusion: CDDA 62%
    Signature: C999CFC449568D2DAB2075696AAC0EFACA116660
    FILE: 06 - Body and Soul.
    Size: 17287626 Hash: A13F3A01B17C275D08A4F6C794E0ECEB Accuracy: -m0
    Conclusion: CDDA 100%
    Signature: EA094855B20E99A1CCACC144CD6C1DA9BEB14B72
    FILE: 05 - Birdlike.
    Size: 16036107 Hash: DA6E4D3195B859E76D2A9BCB34E3F8CF Accuracy: -m0
    Conclusion: CDDA 100%
    Signature: 91C3953E640A0BDB51C97600EA9ABA23A73D8940
    FILE: 04 - Sinfonia No. 11 in G minor BWV 797.
    Size: 13333586 Hash: BC44F60F26944AD10142E88F098D196E Accuracy: -m0
    Conclusion: CDDA 94%
    Signature: FD7D38C609650B06257404F4E259F1E1AE555FC1
    FILE: 03 - All the Things You Are.
    Size: 18852104 Hash: 4AED7F0880BCBB0DE78A0191AC29D82B Accuracy: -m0
    Conclusion: CDDA 100%
    Signature: B19BA3B917691D397BD15D259967C09B10A5F7DC
    FILE: 02 - Mazurka op.67 no.4.
    Size: 9194994 Hash: F8CB8E0B83AD36FF020810D893B5EF13 Accuracy: -m0
    Conclusion: CDDA 85%
    Signature: AC4DB37F5B69856217DF65B207BD2C9893D051F4
    FILE: 01 - Spring Song.
    Size: 21745755 Hash: 7A3607863DF92222E7867F63101A0EA5 Accuracy: -m0
    Conclusion: CDDA 86%
    Signature: 81711AF43A6B4F5F5CFDA74D427B154D054AFD93
    2018 - Craig Taborn & Vadim Neselovskyi - Da’at (Knowledge)

    Вадим Неселовський (Vadim Neselovskyi) | Дискографія (3CD) (2007-2018) [] | Contemporary Jazz


    Треклист:
    01. Penimi (take 1) - 05:21
    02. Setumah - 04:57
    03. Bohu (take 1) - 03:05
    04. Kayam (take 1) - 05:52
    05. Penimi (take 2) - 09:33
    06. Ketarim - 06:05
    07. Ge'ulah - 04:14
    08. Rachamin - 04:45
    09. Orot - 03:44
    10. Tikkun - 03:26
    11. Bohu (take 2) - 05:48
    12. Kayam (take 2) - 09:26
    13. Penimi (take 3) - 06:12

    Виконавці:

    Craig Taborn - фортепiано
    Вадим Неселовський - фортепiано
    Dan Loomis - контрабас (11-13)
    Ronen Itzik - барабани (11-13)

    Тривалість: 01:12:27
    Мова: інструментальні композиції
    Аудіо-кодек:
    Бітрейт: 445-959 кб/с
    Видавець: Tzadik
    EAC
    Exact Audio Copy V1.3 from 2. September 2016

    EAC extraction logfile from 11. September 2018, 2:00

    John Zorn / The Book Beri'ah: Da'at

    Used drive : HL-DT-STBDDVDRW GBC-H20L Adapter: 1 ID: 0

    Read mode : Secure
    Utilize accurate stream : Yes
    Defeat audio cache : Yes
    Make use of C2 pointers : No

    Read offset correction : 667
    Overread into Lead-In and Lead-Out : No
    Fill up missing offset samples with silence : Yes
    Delete leading and trailing silent blocks : No
    Null samples used in CRC calculations : Yes
    Used interface : Native Win32 interface for Win NT & 2000
    Gap handling : Appended to previous track

    Used output format : User Defined Encoder
    Selected bitrate : 768 kBit/s
    Quality : High
    Add ID3 tag : No
    Command line compressor : C:\Program Files (x86)\Exact Audio Copy\\.EXE
    Additional command line options : -8 -e -p -V -T "ARTIST=%artist%" -T "TITLE=%title%" -T "ALBUM=%albumtitle%" -T "DATE=%year%" -T "TRACKNUMBER=%tracknr%" -T "GENRE=%genre%" -T "PERFORMER=%albuminterpret%" -T "COMPOSER=%composer%" %haslyrics%--tag-from-file=LYRICS="%lyricsfile%"%haslyrics% -T "ALBUMARTIST=%albumartist%" -T "DISCNUMBER=%cdnumber%" -T "TOTALDISCS=%totalcds%" -T "TOTALTRACKS=%numtracks%" -T "COMMENT=%comment%" %source% -o %dest%

    TOC of the extracted CD

    Track | Start | Length | Start sector | End sector
    ---------------------------------------------------------
    1 | 0:00.00 | 5:21.21 | 0 | 24095
    2 | 5:21.21 | 4:56.70 | 24096 | 46365
    3 | 10:18.16 | 3:05.26 | 46366 | 60266
    4 | 13:23.42 | 5:52.08 | 60267 | 86674
    5 | 19:15.50 | 9:33.04 | 86675 | 129653
    6 | 28:48.54 | 6:05.18 | 129654 | 157046
    7 | 34:53.72 | 4:13.70 | 157047 | 176091
    8 | 39:07.67 | 4:44.42 | 176092 | 197433
    9 | 43:52.34 | 3:43.61 | 197434 | 214219
    10 | 47:36.20 | 3:25.52 | 214220 | 229646
    11 | 51:01.72 | 5:48.29 | 229647 | 255775
    12 | 56:50.26 | 9:25.58 | 255776 | 298208
    13 | 66:16.09 | 6:11.63 | 298209 | 326096

    Track 1

    Filename Z:\media\rips\John Zorn - The Book Beriah (2018) []\CD11\93 Penimi.wav

    Pre-gap length 0:00:02.00

    Peak level 92.2 %
    Extraction speed 1.2 X
    Track quality 100.0 %
    Test CRC 0EA49749
    Copy CRC 0EA49749
    Track not present in AccurateRip database
    Copy OK

    Track 2

    Filename Z:\media\rips\John Zorn - The Book Beriah (2018) []\CD11\94 Setumah.wav

    Peak level 88.1 %
    Extraction speed 1.4 X
    Track quality 100.0 %
    Test CRC E035D4B1
    Copy CRC E035D4B1
    Track not present in AccurateRip database
    Copy OK

    Track 3

    Filename Z:\media\rips\John Zorn - The Book Beriah (2018) []\CD11\95 Bohu.wav

    Peak level 93.3 %
    Extraction speed 1.4 X
    Track quality 100.0 %
    Test CRC 0D2D267B
    Copy CRC 0D2D267B
    Track not present in AccurateRip database
    Copy OK

    Track 4

    Filename Z:\media\rips\John Zorn - The Book Beriah (2018) []\CD11\96 Kayam.wav

    Peak level 91.7 %
    Extraction speed 1.6 X
    Track quality 100.0 %
    Test CRC A39EADBB
    Copy CRC A39EADBB
    Track not present in AccurateRip database
    Copy OK

    Track 5

    Filename Z:\media\rips\John Zorn - The Book Beriah (2018) []\CD11\97 Penimi.wav

    Peak level 87.1 %
    Extraction speed 1.9 X
    Track quality 100.0 %
    Test CRC CC31B16D
    Copy CRC CC31B16D
    Track not present in AccurateRip database
    Copy OK

    Track 6

    Filename Z:\media\rips\John Zorn - The Book Beriah (2018) []\CD11\98 Ketarim.wav

    Peak level 89.5 %
    Extraction speed 2.0 X
    Track quality 100.0 %
    Test CRC 22B997A0
    Copy CRC 22B997A0
    Track not present in AccurateRip database
    Copy OK

    Track 7

    Filename Z:\media\rips\John Zorn - The Book Beriah (2018) []\CD11\99 Ge'ulah.wav

    Peak level 92.3 %
    Extraction speed 1.7 X
    Track quality 99.9 %
    Test CRC A0C1F439
    Copy CRC A0C1F439
    Track not present in AccurateRip database
    Copy OK

    Track 8

    Filename Z:\media\rips\John Zorn - The Book Beriah (2018) []\CD11\100 Rachamin.wav

    Peak level 89.0 %
    Extraction speed 2.1 X
    Track quality 100.0 %
    Test CRC 2191565A
    Copy CRC 2191565A
    Track not present in AccurateRip database
    Copy OK

    Track 9

    Filename Z:\media\rips\John Zorn - The Book Beriah (2018) []\CD11\101 Orot.wav

    Peak level 87.8 %
    Extraction speed 2.1 X
    Track quality 100.0 %
    Test CRC DBE0BCB9
    Copy CRC DBE0BCB9
    Track not present in AccurateRip database
    Copy OK

    Track 10

    Filename Z:\media\rips\John Zorn - The Book Beriah (2018) []\CD11\102 Tikkun.wav

    Peak level 87.1 %
    Extraction speed 2.1 X
    Track quality 100.0 %
    Test CRC 2DF0647F
    Copy CRC 2DF0647F
    Track not present in AccurateRip database
    Copy OK

    Track 11

    Filename Z:\media\rips\John Zorn - The Book Beriah (2018) []\CD11\103 Bohu.wav

    Peak level 95.7 %
    Extraction speed 2.4 X
    Track quality 100.0 %
    Test CRC B982D1C8
    Copy CRC B982D1C8
    Track not present in AccurateRip database
    Copy OK

    Track 12

    Filename Z:\media\rips\John Zorn - The Book Beriah (2018) []\CD11\104 Kayam.wav

    Peak level 92.1 %
    Extraction speed 2.6 X
    Track quality 100.0 %
    Test CRC 8C447CD6
    Copy CRC 8C447CD6
    Track not present in AccurateRip database
    Copy OK

    Track 13

    Filename Z:\media\rips\John Zorn - The Book Beriah (2018) []\CD11\105 Penimi.wav

    Peak level 95.4 %
    Extraction speed 2.4 X
    Track quality 99.9 %
    Test CRC 82C9ED9E
    Copy CRC 82C9ED9E
    Track not present in AccurateRip database
    Copy OK

    None of the tracks are present in the AccurateRip database

    No errors occurred

    End of status report

    ==== Log checksum FE8B3871B31D79720E02B9ECE61631AD66779D51E5B1CC7A03795F0B4148E51B ====
    (.CUE)
    REM GENRE Avantgarde
    REM DATE 2018
    REM DISCID B110FB0D
    REM COMMENT "ExactAudioCopy v1.3"
    PERFORMER "John Zorn"
    TITLE "The Book Beri'ah: Da'at"
    REM COMPOSER "John Zorn"
    FILE "93 Penimi (take 1).wav" WAVE
    TRACK 01 AUDIO
    TITLE "Penimi (take 1)"
    PERFORMER "Craig Taborn"
    REM COMPOSER "John Zorn"
    FLAGS DCP
    INDEX 01 00:00:00
    FILE "94 Setumah.wav" WAVE
    TRACK 02 AUDIO
    TITLE "Setumah"
    PERFORMER "Craig Taborn"
    REM COMPOSER "John Zorn"
    FLAGS DCP
    INDEX 01 00:00:00
    FILE "95 Bohu (take 1).wav" WAVE
    TRACK 03 AUDIO
    TITLE "Bohu (take 1)"
    PERFORMER "Craig Taborn"
    REM COMPOSER "John Zorn"
    FLAGS DCP
    INDEX 01 00:00:00
    FILE "96 Kayam (take 1).wav" WAVE
    TRACK 04 AUDIO
    TITLE "Kayam (take 1)"
    PERFORMER "Craig Taborn"
    REM COMPOSER "John Zorn"
    FLAGS DCP
    INDEX 01 00:00:00
    FILE "97 Penimi (take 2).wav" WAVE
    TRACK 05 AUDIO
    TITLE "Penimi (take 2)"
    PERFORMER "Craig Taborn"
    REM COMPOSER "John Zorn"
    FLAGS DCP
    INDEX 01 00:00:00
    FILE "98 Ketarim.wav" WAVE
    TRACK 06 AUDIO
    TITLE "Ketarim"
    PERFORMER "Craig Taborn & Vadim Neselovskyi"
    REM COMPOSER "John Zorn"
    FLAGS DCP
    INDEX 01 00:00:00
    FILE "99 Ge'ulah.wav" WAVE
    TRACK 07 AUDIO
    TITLE "Ge'ulah"
    PERFORMER "Craig Taborn & Vadim Neselovskyi"
    REM COMPOSER "John Zorn"
    FLAGS DCP
    INDEX 01 00:00:00
    FILE "100 Rachamin.wav" WAVE
    TRACK 08 AUDIO
    TITLE "Rachamin"
    PERFORMER "Vadim Neselovskyi"
    REM COMPOSER "John Zorn"
    FLAGS DCP
    INDEX 01 00:00:00
    FILE "101 Orot.wav" WAVE
    TRACK 09 AUDIO
    TITLE "Orot"
    PERFORMER "Vadim Neselovskyi"
    REM COMPOSER "John Zorn"
    FLAGS DCP
    INDEX 01 00:00:00
    FILE "102 Tikkun.wav" WAVE
    TRACK 10 AUDIO
    TITLE "Tikkun"
    PERFORMER "Vadim Neselovskyi"
    REM COMPOSER "John Zorn"
    FLAGS DCP
    INDEX 01 00:00:00
    FILE "103 Bohu (take 2).wav" WAVE
    TRACK 11 AUDIO
    TITLE "Bohu (take 2)"
    PERFORMER "Vadim Neselovskyi Trio"
    REM COMPOSER "John Zorn"
    FLAGS DCP
    INDEX 01 00:00:00
    FILE "104 Kayam (take 2).wav" WAVE
    TRACK 12 AUDIO
    TITLE "Kayam (take 2)"
    PERFORMER "Vadim Neselovskyi Trio"
    REM COMPOSER "John Zorn"
    FLAGS DCP
    INDEX 01 00:00:00
    FILE "105 Penimi (take 3).wav" WAVE
    TRACK 13 AUDIO
    TITLE "Penimi (take 3)"
    PERFORMER "Vadim Neselovskyi Trio"
    REM COMPOSER "John Zorn"
    FLAGS DCP
    INDEX 01 00:00:00
    про альбом i збiрник John Zorn, Masada Book 3, The Book Beri’ah

    The release of The Book Beri’ah is exciting for fans of John Zorn’s Masada series, with 92 new compositions. An amalgam of various elements ranging from klezmer to free jazz, I’ve always found Masada’s music difficult to describe except to say that you know it when you hear it. A common theme in Masada is a sense of urgency and intent; even when there is exploratory improvisation, it feels like it’s purposeful and driven. Getting an entire box set of Masada released all at once has been sensory overload for me in the best way possible. Below are my takes from my first listen through the Book Beri’ah.

    Book Beri’ah 1 – Keter – Sofia Rei & JC Maillard
    I can see why Zorn chose this to start Book 3; for Masada it’s a somewhat unique group- vocals and something that sounds like an acoustic guitar called a “bass saz”. Some very Middle Eastern feels throughout, and Sofia Rei’s voice is perfect. I’m curious what the lyrics mean (I think she’s singing in French) and if Zorn wrote the lyrics, and if so if he had her voice in mind. Hearing only one instrument play Masada evokes memories of albums like Masada Guitars, and even Masada String Trio. Great album, will not scare the elderly.

    Book Beri’ah 2 – Chokhma – Cleric
    This album will scare the elderly. And most people. It is simultaneously beautiful and terrifying. You know when real metal fans laugh at people who are into a band like Motley Crue or Metallica and say that’s not really metal? I think they’d listen to this and say that it’s legit metal. Some incredibly aggressive vocals, and in between the vocals is incredibly technical and great playing. This band has Matt Hollenberg on guitar, who I’ve seen shred Bagatelles and other Masada songs before. The keys and vocals are Nick Shellenberger. Interesting to me that the first two albums in Book 3 have vocals, which is unique in the Masada catalog.

    Book Beri’ah 3 – Binah – Spike Orchestra
    Beautiful. An orchestra that has 11 horns, guitar, keys, accordion (which adds this kind of French bistro feel), double bass, and drums/percussion. There is a lot going on here- a lot of layers to music that on its surface is already complex. There are other big bands in this Masada set (e.g. Zion80, Secret Chiefs 3), but this really feels like orchestral, swinging big band Masada, with a dose of klezmer every now and then. The track Kalim (which was released ahead of the album) is a pretty perfect embodiment of Masada.

    Book Beri’ah 4 – Chesed – Julian Lage & Gyan Riley
    These are two of the greatest (and without hyperbole, may be THE greatest) guitarists out there and they compliment each other perfectly. This album is just the two of them, each on acoustic guitar. They have this ability to be playing two completely different things at the same time that find ways to sync up. I guess that’s common in Masada music (especially with original compositions featuring Zorn on sax and Dave Douglas on trumpet), but without other instruments it’s easy to tune into what each of them are doing individually as well as together. The music is light, but it’s also relentless in that it’s always moving. It’s heavily composed- it’s not like they take crazy solos here and go off. I think that’s what makes this one so great.

    Book Beri’ah 5 – Gevurah – Abraxas
    With this album we finally get to the first of four albums in the Book Beri’ah that has Shanir Ezra Blumenkranz on it; on this album he plays gimbri, bass, and percussion. This was one of the albums in the set that I was most looking forward to after catching Abraxas a couple of times at The Stone and the Village Vanguard in NYC. Abraxas is guitar heavy and in your face; Shanir on gimbri/bass and Kenny Grohowski on drums create this pulsating rhythm that Eyal Maoz and Aram Bajakian just slaughter with their guitars. Lots of overdrive and distortion here; this group is “jamming” friendly IMO- the guitar playing can rage and get out there. That being said, it never loses the Masada focus- the composition is what drives everything. What really makes this group unique is Shanir- the gimbri (which looks like someone made a three-string bass out of a bathmat) keeps coming at you, and in a few instances is what starts off a track, almost challenging the other players to find their space.

    Book Beri’ah 6 – Tiferet – Klezmerson
    The overdrive and urgency of Abraxas is somewhat gone here, swapped out for a large Klezmer band with (from what I can gather) South American / Mexican influences. One of the things that makes this box set great is the variedness of the artists, and no album has that more than this one. The composition was there, but felt more in the background than the other albums so far. There is big sound coming from a plethora of instruments, and in some ways may be the most “upbeat” of the Book Beri’ah so far.

    Book Beri’ah 7 – Netzach – Gnostic Trio
    The Gnostic Trio album at points is deceptively mellow and it’s glorious. Bill Frisell on guitar, Kenny Wolleson on vibes, and Carol Emanuel on harp create some of the airiest music that I’ve heard. Kind of like a Dreamers “light” lineup, this album creates some space for your mind to relax with ease. Frisell is utilizing all his toys here to create a spacey feel. All three of them take lead; sometimes one at a time and sometimes simultaneously. If John Zorn opened a spa, this album would be playing while you’re receiving treatment. There is one track (Re’cha- track 6) that has Frisell turning on the effects to produce some crunch in his tone, but other than that everything is light and blissful. The Masada composition style really comes through. In fact, it’s almost all composed- very little (if any) solos here. Great album.

    Book Beri’ah 8 – Hod – Zion80
    In my opinion, this is the most accessible album in the Book Beri’ah for people who may not know Masada. Zion80’s album is like if a band such as Galactic or maybe Lettuce was asked to do a Masada album. Led by Jon Madof on guitar, this is a big band. Four piece horn section, two guitars, percussion, drums, bass (Shanir!), and keys (Brian Marsella!); this band is making big sound. At times incredibly funky, and always groove focused, this may be one of the more danceable Masada albums that I’m aware of. The Masada composition is mostly represented through the horns, but in contrast to some of the other albums where a lot of things may be happening at the same time, this album has a coalition to the theme that punches through. It also has the distinction of being the only album in the Book Beri’ah that has John Zorn playing on it; he appears on track 5 (Tahor) and his spot has become one of my favorite moments on this set. When Zorn is playing, you know it- that frenzied Masada pace that I mentioned before was created by him. What’s great is that Zion80 continues to be Zion80 while Zorn is being Zorn, and it works great. Every now and then I know Zion80 plays together in the city; I hope they can get in front of a crowd in a space with a big open floor.

    Book Beri’ah 9 – Yesod – Banquet of the Spirits
    We continue with more Brian Marsella and Shanir Blumenkranz for Cyro Batista’s Banquet of the Spirits (with Tim Keiper on drums). My “gripe” with this album is that you can’t see Cyro. This past April at the Book Beri’ah show on the Upper West Side of Manhattan, Cyro was a sight to behold. I’ve seen him in many groups doing his thing, but this was something else for me- he had his whole arsenal of sound producing devices into a 45 minute set. Equally enthralling was Brian Marsella on the other end of the stage, attacking the baby grand at a fever pace; the piano is pretty much the only “lead” instrument here. So despite not being able to see it when I listen to the album, I can imagine it- especially Cyro waving some tube over his head to create a wah sound that joins the rhythm. This is a great piano led album, and some of the later tracks have some real intense moments. Some of my favorite Masada moments are when the music has built to high levels of intensity that you get trapped in, and then abruptly stops…. like you’re Wile E. Coyote running off a cliff and you won’t fall until you realize there’s no ground underneath you. This album gets there- the track Dim Yoni in particular comes to mind. Shanir also gets some time on the double bass that is well worth your attention.

    Book Beri’ah 10 – Malkhut – Secret Chiefs 3
    This album has everything. The first couple of tracks sound like they could be scoring an art house horror film. And then elements of Mahavishnu Orchestra creep in, with a heavy synth presence. At times it’s very prog rock. I don’t know if a more insane drums/percussion duo of Kenny Grohowski and Ches Smith exists- having one of them in a band is an embarrassment of riches; both is an attack on your senses. The other instruments are two guitars, violin (Eyvind Kang!), keys, and the least busy bassist in Masada-land, Shanir Blumenkranz. In some ways, this is like if Electric Masada had different instrumentation and tones. It’s a varied band of musicians, and before you can get too used to one thing you get hit in the face with something else. It’s almost made for people with ADD, as it’s rare one instrument or phrase gets more than 16 consecutive bars. The level of detail in this music is amazing.

    Book Beri’ah 11 – Da’at – Craig Taborn & Vadim Neselovskyi
    Technically a bonus disc, the final part of the third book of Masada are compositions that appear on the Sofia Rei & J.C. Maillard album (with the exception of one that’s on the Lage/Riley album). The first nine tracks are solo piano. either Craig Taborn or Vadim Neslovskyi playing the composition. This is as stripped down as you’re going to get- this is Masada classical piano. Not much to say beyond that…. it’s great, and deserves a listen, but I’m curious about the context of this one. Was it supposed to be the album that became Sofia Rei’s album, or was this just a good recording that Zorn decided to include as a bonus? After track nine there are a few jazzier tracks where there are bass and drums. At least online the personnel for these tracks are unlisted, so I’m guessing that it might be Vadim Neseloyvskyi with Dan Loomis and Ronen Itzik (this trio played during Masada week at the Vanguard last November). It’s interesting to hear the same tracks as classical piano and then in a piano jazz setting- one piece of music with countless ways to represent it.


    (Andy Hollander)

Тривалість: 02:52:39
Мова: інструментальнi композицiї, окрiм CD2(9)-росiйська.
Аудіо-кодек:
Бітрейт: 301-573 кб/с
Джерело: трекер
Додаткова інформація:
«... Неймовірно оригінальний і чудовий композитор, дивовижний, унікальний імпровізатор» (Gary Burton)

Вадим Неселовський - асистент професора Berklee College of Music.


Якщо Ви справді бажаєте підтримати українське - після прослуховування, якщо музика вам сподобалась, придбайте ліцензійний диск. Підтримаймо вітчизняних виконавців!


Золотий реліз (завантажене не впливає на рейтинг)
 Трекер:    Зареєстрований   

Завантажити / скачати українську музику



відео для новачків



 Зареєстрований:   2019-02-20 21:10
 Розмір:   658 MB 
 Оцінка музики:   10/10 (Голосів: 5)
   
staf777 
Відео Гуртом - підтримка та поширення
Відео Гуртом - підтримка та поширення


З нами з: 16.11.16
Востаннє: 22.07.19
Повідомлень: 2681

2016-11-25 22:51  
Вадим Неселовський чимось схожий трохи на тренера Донецького Шахтаря
kolpavel 
VIP


З нами з: 04.05.14
Востаннє: 22.07.19
Повідомлень: 1252

2019-02-20 21:25  
20 лютого додав 11-й диск збiрки John Zorn, Masada Book 3, The Book Beri’ah.
Вадим Неселовський (Vadim Neselovskyi) | Дискографія (3CD) (2007-2018) [] | Contemporary Jazz

Ваш часовий пояс: GMT + 2 Години

Нова тема   Відповісти