Снупі та Чарлі Браун: Дрібнота у кіно / The Peanuts Movie (2015) 1080p 3D [Half OverUnder] Ukr/Eng | Sub Ukr/Eng

Нові коментарі

Нова тема   Відповісти
Автор Повідомлення
-VipeR- 
VIP


З нами з: 17.07.08
Востаннє: 23.08.17
Повідомлень: 289

2016-03-01 12:32  
Снупі та Чарлі Браун: Дрібнота у кіно / The Peanuts Movie (2015) 1080p 3D [Half OverUnder] Ukr/Eng | Sub Ukr/Eng

Снупі та Чарлі Браун: Дрібнота у кіно / The Peanuts Movie (2015) 1080p 3D [Half OverUnder] Ukr/Eng | Sub Ukr/Eng


Жанр: Комедія, Мультфільм, Сімейний, Пригодницький
Країна: США



Кінокомпанія: 20th Century Fox Animation, Blue Sky Studios, Feigco Entertainment
Режисер: Стів Мартіно
Актори: Тромбон Шорти, Ребекка Блум, Анастасія Бредихина, Франческа Капальді, Крістін Ченоует, Олександр Гарфін, Ной Джонстон, Білл Мелендес, Хедлі Белль Міллер

Сюжет:
Чарлі Браун, Снупі, Люсі, Лінус і інші улюблені персонажі коміксів «Дрібна торгівля» вперше з'являться на великому екрані в повнометражному анімаційному фільмі, знятому з використанням останніх досягнень 3D-анімації. Снупі - найсимпатичніший пес у світі - до того ж, класний пілот - відправляється в неймовірні повітряні пригоди в гонитві за головним лиходієм Червоним Бароном. У цей час у його приятеля Чарлі Брауна починаються воістину епічні пригоди!


Тривалість: 01:28:07
Якість: AVC 1080p 3D [Half OverUnder] Ash61
Відео:
кодек:
розмір кадру: 1920 х 1080
бітрейт: 8151 кб/с

Аудіо # 1:
мова: українська
переклад: професійний дубльований
кодек: 2.0
бітрейт: 192 кб/с

Аудіо # 2:
мова: англійська
переклад: оригінал
кодек: 5.1
бітрейт: 640 кб/с

Субтитри:
мова: українська (форсовані, повні)
тип: програмні (м'які)
формат: *.srt

Субтитри:
мова: англійська
тип: програмні (м'які)
формат: *.srt
Info
Код:
General
Unique ID                      : 252027974509048646447552269785682712325 (0xBD9AD281CBADB42282015827B3289705)
Complete name                  : D:\3D\The Peanuts Movie (2015) AVC 1080p 3D {Half OverUnder] UKR ENG Sub UKR ENG [Hurtom].
Format                         :
Format version                 : Version 4 / Version 2
File size                      : 5.64 GiB
Duration                       : 1h 28mn
Overall bit rate               : 9 165 Kbps
Movie name                     : Снупі та Чарлі Браун: Дрібнота у кіно / The Peanuts Movie (2015) в 3Д
Encoded date                   : UTC 2016-03-01 09:10:34
Writing application            : mkvmerge v8.8.0 ('Wind at my back') 64bit
Writing library                : libebml v1.3.3 + libmatroska v1.4.4
DURATION                       : 01:27:22.291000000
NUMBER_OF_FRAMES               : 1304
NUMBER_OF_BYTES                : 37239
_STATISTICS_WRITING_APP        : mkvmerge v8.8.0 ('Wind at my back') 64bit
_STATISTICS_WRITING_DATE_UTC   : 2016-03-01 09:10:34
_STATISTICS_TAGS               : BPS DURATION NUMBER_OF_FRAMES NUMBER_OF_BYTES

Video
ID                             : 1
Format                         : AVC
Format/Info                    : Advanced Video Codec
Format profile                 : [email protected]
Format settings, CABAC         : Yes
Format settings, ReFrames      : 4 frames
Codec ID                       : V_MPEG4/ISO/AVC
Duration                       : 1h 28mn
Bit rate                       : 8 151 Kbps
Width                          : 1 920 pixels
Height                         : 1 080 pixels
Display aspect ratio           : 16:9
Frame rate mode                : Constant
Frame rate                     : 23.976 fps
Color space                    : YUV
Chroma subsampling             : 4:2:0
Bit depth                      : 8 bits
Scan type                      : Progressive
Bits/(Pixel*Frame)             : 0.164
Stream size                    : 5.02 GiB (89%)
Title                          : by Ash61
Writing library                : core 146 r2538 121396c
Encoding settings              : cabac=1 / ref=4 / deblock=1:-3:-3 / analyse=0x3:0x113 / me=umh / subme=10 / psy=1 / psy_rd=1.00:0.00 / mixed_ref=1 / me_range=32 / chroma_me=1 / trellis=2 / 8x8dct=1 / cqm=0 / deadzone=21,11 / fast_pskip=1 / chroma_qp_offset=-2 / threads=12 / lookahead_threads=3 / sliced_threads=0 / nr=0 / decimate=1 / interlaced=0 / bluray_compat=0 / constrained_intra=0 / bframes=12 / b_pyramid=2 / b_adapt=2 / b_bias=0 / direct=3 / weightb=1 / open_gop=0 / weightp=2 / keyint=250 / keyint_min=23 / scenecut=40 / intra_refresh=0 / rc_lookahead=60 / rc=crf / mbtree=1 / crf=13.5 / qcomp=0.70 / qpmin=0 / qpmax=69 / qpstep=4 / vbv_maxrate=40000 / vbv_bufsize=30000 / crf_max=0.0 / nal_hrd=none / filler=0 / frame-packing=4 / ip_ratio=1.40 / aq=1:0.70
Language                       : English
Default                        : Yes
Forced                         : No
DURATION                       : 01:28:07.115000000
NUMBER_OF_FRAMES               : 126764
NUMBER_OF_BYTES                : 5505714900
_STATISTICS_WRITING_APP        : mkvmerge v8.8.0 ('Wind at my back') 64bit
_STATISTICS_WRITING_DATE_UTC   : 2016-03-01 09:10:34
_STATISTICS_TAGS               : BPS DURATION NUMBER_OF_FRAMES NUMBER_OF_BYTES

Audio #1
ID                             : 2
Format                         : AC-3
Format/Info                    : Audio Coding 3
Mode extension                 : CM (complete main)
Format settings, Endianness    : Big
Codec ID                       : A_AC3
Duration                       : 1h 28mn
Bit rate mode                  : Constant
Bit rate                       : 192 Kbps
Channel count                  : 2 channels
Channel positions              : Front: L R
Sampling rate                  : 48.0 KHz
Bit depth                      : 16 bits
Compression mode               : Lossy
Stream size                    : 121 MiB (2%)
Title                          : Дубляж - iTunes
Language                       : Ukrainian
Default                        : No
Forced                         : No

Audio #2
ID                             : 3
Format                         : AC-3
Format/Info                    : Audio Coding 3
Mode extension                 : CM (complete main)
Format settings, Endianness    : Big
Codec ID                       : A_AC3
Duration                       : 1h 28mn
Bit rate mode                  : Constant
Bit rate                       : 640 Kbps
Channel count                  : 6 channels
Channel positions              : Front: L C R, Side: L R, LFE
Sampling rate                  : 48.0 KHz
Bit depth                      : 16 bits
Compression mode               : Lossy
Stream size                    : 403 MiB (7%)
Title                          : Original
Language                       : English
Default                        : No
Forced                         : No

Text #1
ID                             : 4
Format                         : UTF-8
Codec ID                       : S_TEXT/UTF8
Codec ID/Info                  : UTF-8 Plain Text
Title                          : Форсированные
Language                       : Ukrainian
Default                        : No
Forced                         : No

Text #2
ID                             : 5
Format                         : UTF-8
Codec ID                       : S_TEXT/UTF8
Codec ID/Info                  : UTF-8 Plain Text
Title                          : Полные
Language                       : Ukrainian
Default                        : No
Forced                         : No

Text #3
ID                             : 6
Format                         : UTF-8
Codec ID                       : S_TEXT/UTF8
Codec ID/Info                  : UTF-8 Plain Text
Title                          : SDH
Language                       : English
Default                        : No
Forced                         : No

Menu
00:00:00.000                   : :1
00:05:20.110                   : :2
00:07:59.228                   : :3
00:11:03.913                   : :4
00:13:36.105                   : :5
00:17:50.193                   : :6
00:20:57.047                   : :7
00:23:28.949                   : :8
00:25:36.617                   : :9
00:28:09.229                   : :10
00:32:37.538                   : :11
00:36:24.181                   : :12
00:41:15.139                   : :13
00:44:20.865                   : :14
00:47:58.333                   : :15
00:51:48.438                   : :16
00:55:30.534                   : :17
01:00:16.195                   : :18
01:03:28.094                   : :19
01:04:54.431                   : :20
01:09:00.886                   : :21
01:12:25.548                   : :22
01:16:16.488                   : :23
01:17:22.011                   : :24
Скріншоти
Джерело: &
Особиста оцінка: 8 - мені сподобалося

Відео для перегляду на 3D обладнанні!



 Трекер:    Зареєстрований   

Завантажити / скачати мультфільм українською



відео для новачків



 Зареєстрований:   2016-03-01 12:32
 Розмір:   5.64 GB 
 Оцінка мультфільму:   9.3/10 (Голосів: 3)
   
Ваш часовий пояс: GMT + 2 Години

Нова тема   Відповісти