Гладіатори Риму / Gladiatori di Roma (2012) 1080p 3D [SideBySide] Ukr/Ita | Sub Ita

Нові коментарі

Нова тема   Відповісти
Автор Повідомлення
-VipeR- 
VIP


З нами з: 17.07.08
Востаннє: 21.08.17
Повідомлень: 289

2016-02-27 16:50  
Гладіатори Риму / Gladiatori di Roma (2012) 1080p 3D [SideBySide] Ukr/Ita | Sub Ita

Гладіатори Риму / Gladiatori di Roma (2012) 1080p 3D [SideBySide] Ukr/Ita | Sub Ita


Жанр: анімація, пригодницький, комедія
Країна: Італія



Кінокомпанія: Rainbow S.r.l.
Режисер: Іґініо Страффі
Актори: Люка Арджентеро, Лаура Кьятті, Джуліанна Хаф та ін.

Сюжет:
Страшне виверження вулкана руйнує місто Помпеї, і маленький Тім залишається сиротою. Його рятівник, генерал Кірон, відправляє Тіма в школу гладіаторів, але юний ледар наполегливо не бажає ставати бійцем. Подорослішавши, Тім закохується в красуню Лючіллу. Але щоб підкорити її серце, потрібно стати справжнім героєм. Прекрасна Діана, богиня полювання і майстер по гладіаторським боям, береться за тренування Тіма перед першим боєм. Але чи вийде у Тіма перемогти самого себе і стати справжнім чоловіком?


Тривалість: 01:34:04
Якість: 1080p 3D [SideBySide]
Відео:
кодек:
розмір кадру: 1920 х 1080
бітрейт: 9763 кб/с

Аудіо # 1:
мова: українська
переклад: професійний дубльований AAA-sound
кодек: 5.1
бітрейт: 448 кб/с

Аудіо # 2:
мова: італійська
переклад: оригінал
кодек: -HD 5.1
бітрейт: 1509 кб/с

Джерело озвучення:


Субтитри:
мова: італійська
тип: програмні (м'які)
формат: *.srt
Info
Код:
General
Unique ID                      : 237019511807834864128402127162744385165 (0xB2504C2A3C806B37B7594272C9EA2E8D)
Complete name                  : D:\3D\Gladiatori di Roma (2012) [ukr.ita] 1080p 3D SideBySide [Hurtom].
Format                         :
Format version                 : Version 4 / Version 2
File size                      : 7.86 GiB
Duration                       : 1h 34mn
Overall bit rate               : 12.0 Mbps
Encoded date                   : UTC 2016-02-27 12:21:00
Writing application            : mkvmerge v8.8.0 ('Wind at my back') 64bit
Writing library                : libebml v1.3.3 + libmatroska v1.4.4
DURATION                       : 01:28:37.812000000
NUMBER_OF_FRAMES               : 935
NUMBER_OF_BYTES                : 38103
_STATISTICS_WRITING_APP        : mkvmerge v8.8.0 ('Wind at my back') 64bit
_STATISTICS_WRITING_DATE_UTC   : 2016-02-27 12:21:00
_STATISTICS_TAGS               : BPS DURATION NUMBER_OF_FRAMES NUMBER_OF_BYTES

Video
ID                             : 1
Format                         : AVC
Format/Info                    : Advanced Video Codec
Format profile                 : [email protected]
Format settings, CABAC         : Yes
Format settings, ReFrames      : 2 frames
Codec ID                       : V_MPEG4/ISO/AVC
Duration                       : 1h 34mn
Bit rate                       : 9 763 Kbps
Width                          : 1 920 pixels
Height                         : 816 pixels
Display aspect ratio           : 2.35:1
Frame rate mode                : Constant
Frame rate                     : 23.976 fps
Color space                    : YUV
Chroma subsampling             : 4:2:0
Bit depth                      : 8 bits
Scan type                      : Progressive
Bits/(Pixel*Frame)             : 0.260
Stream size                    : 6.42 GiB (82%)
Writing library                : core
Default                        : No
Forced                         : No
Color primaries                : BT.709
Transfer characteristics       : BT.709
Matrix coefficients            : BT.709

Audio #1
ID                             : 2
Format                         : AC-3
Format/Info                    : Audio Coding 3
Mode extension                 : CM (complete main)
Format settings, Endianness    : Big
Codec ID                       : A_AC3
Duration                       : 1h 34mn
Bit rate mode                  : Constant
Bit rate                       : 448 Kbps
Channel count                  : 6 channels
Channel positions              : Front: L C R, Side: L R, LFE
Sampling rate                  : 48.0 KHz
Bit depth                      : 16 bits
Compression mode               : Lossy
Stream size                    : 301 MiB (4%)
Default                        : Yes
Forced                         : No

Audio #2
ID                             : 3
Format                         :
Format/Info                    : Digital Theater Systems
Mode                           : 16
Format settings, Endianness    : Big
Codec ID                       : A_DTS
Duration                       : 1h 34mn
Bit rate mode                  : Constant
Bit rate                       : 1 509 Kbps
Channel count                  : 6 channels
Channel positions              : Front: L C R, Side: L R, LFE
Sampling rate                  : 48.0 KHz
Bit depth                      : 16 bits
Compression mode               : Lossy
Delay relative to video        : 11ms
Stream size                    : 1 015 MiB (13%)
Title                          : Ita. 1510 Kbps
Language                       : Italian
Default                        : No
Forced                         : No

Text
ID                             : 4
Format                         : UTF-8
Codec ID                       : S_TEXT/UTF8
Codec ID/Info                  : UTF-8 Plain Text
Title                          : Sub. Ita. Non Udenti
Language                       : Italian
Default                        : No
Forced                         : No

Menu
00:00:00.000                   : en:(01)00:00:00:000
00:05:49.807                   : en:(02)00:05:49:807
00:13:47.034                   : en:(03)00:13:47:034
00:19:00.139                   : en:(04)00:19:00:139
00:25:01.416                   : en:(05)00:25:01:416
00:31:26.426                   : en:(06)00:31:26:426
00:35:59.031                   : en:(07)00:35:59:031
00:42:21.205                   : en:(08)00:42:21:205
00:47:07.866                   : en:(09)00:47:07:866
00:52:27.227                   : en:(10)00:52:27:227
00:56:24.089                   : en:(11)00:56:24:089
01:03:29.806                   : en:(12)01:03:29:806
01:08:41.283                   : en:(13)01:08:41:283
01:13:22.648                   : en:(14)01:13:22:648
01:17:42.282                   : en:(15)01:17:42:282
01:23:48.356                   : en:(16)01:23:48:356
Скріншоти
Джерело: & Ex.Ua
Особиста оцінка: 0 - не дивився

Подяку користувачу Skiff за українську доріжку

Відео для перегляду на 3D обладнанні!


 Трекер:    Зареєстрований   

Завантажити / скачати мультфільм українською



відео для новачків



 Зареєстрований:   2016-02-27 16:50
 Розмір:   7.86 GB 
 Оцінка мультфільму:   8.5/10 (Голосів: 2)
   
Інші релізи
   Гладіатори Риму / Gladiatori di Roma (2012) 1080p Ukr/Ita igor911  3 / 0   4.37 GB   2013-03-02 09:41 
   Гладіатори Риму / Gladiatori di Roma (2012) Skiff  5 / 0   1.46 GB   2013-02-24 15:42 
Ваш часовий пояс: GMT + 2 Години

Нова тема   Відповісти