Місто мрії (Сезон 1) / Magic City (Season 1) (2012) 720p Ukr/Eng | Sub Eng

Нові коментарі

Нова тема   Відповісти
Автор Повідомлення
krigg070 
Відео Гуртом - фільмокрай
Відео Гуртом - фільмокрай


З нами з: 29.10.14
Востаннє: 04.12.20
Повідомлень: 1819

2016-02-24 17:22  
Місто мрії (Сезон 1) / Magic City (Season 1) (2012) 720p Ukr/Eng | Sub Eng


Жанр: драма, кримінальний
Країна: США



Кінокомпанія / телеканал: Starz
Режисер: Едвард Б'янчі, Саймон Селлан Джоунс, Девід Петрарка та інші
Актори: Джеффрі Дін Морган, Ольга Куриленко, Стівен Стрейт, Джессіка Маре, Денні Хьюстон, Крістіан Кук, Олена Сатине, Домінік Гарсіа-Лорідо та інші

Сюжет:
8-серійна драма про найгламурніший готель Маямі кінця 1950-х років.
"Місто мрії" переносить телеглядачів до 1959 ріку в найрозкішніший заклад Маямі-Біч - готель "Мірамар". Вдень у цьому закладі можна зустріти забавних клоунів і любителів потанцювати ча-ча-ча, а вночі він стає притулком для гангстерів, наркодилерів і агентів ФБР...
В одній з головних ролей у картині знялася голлівудська актриса українського походження Ольга Куриленко.


Тривалість: 1 серія: ~ 50 хв. (цілком серій: 8)
Перелік серій
    01. Season 1. Episode 1: The Year of the Fin
    02. Season 1. Episode 2: Feeding Frenzy
    03. Season 1. Episode 3: Castles Made of Sand
    04. Season 1. Episode 4: Atonement
    05. Season 1. Episode 5: Suicide Blonde
    06. Season 1. Episode 6: The Harder They Fall
    07. Season 1. Episode 7: Who's the Horse and Who's the Rider?
    08. Season 1. Episode 8: Time and Tide
Якість:
Відео:
кодек:
розмір кадру: 1 280 х 720
бітрейт: ~ 5500 кб/с

Аудіо # 1:
мова: українська
переклад: багатоголосий закадровий
кодек: 2.0
бітрейт: 192 кб/с
примітка: є неозвучені моменти (так транслював телеканал)

Аудіо # 2:
мова: англійська
переклад: оригінал
кодек: 5.1
бітрейт: 640 кб/с

Субтитри:
мова: англійська
тип: програмні (м'які)
формат: *.srt
Скріншоти
Info
Код:
General
Unique ID                      : 211015021591919371148526960804453495378 (0x9EC003CF2BF639F7A87A43537EB13252)
Complete name                  : C:\Users\krigg\Videos\Magic City. Season 1 (2012) 720p [UKR_ENG] [SUB ENG] [Hurtom]\Magic City (2012) S01E02 720p [Ukr, Eng] [Sub Eng] [Hurtom].
Format                         :
Format version                 : Version 2
File size                      : 2.25 GiB
Duration                       : 50mn 24s
Overall bit rate               : 6 386 Kbps
Movie name                     : Місто мрії (2012) | Сезон 1. Епізод 2: Feeding Frenzy
Encoded date                   : UTC 2016-02-23 20:01:35
Writing application            : v3.3.0 ('Language') built on Mar 24 2010 14:59:24
Writing library                : libebml v0.8.0 + v0.9.0

Video
ID                             : 1
Format                         : AVC
Format/Info                    : Advanced Video Codec
Format profile                 : [email protected]
Format settings, CABAC         : Yes
Format settings, ReFrames      : 5 frames
Codec ID                       : V_MPEG4/ISO/AVC
Duration                       : 50mn 24s
Bit rate                       : 5 556 Kbps
Width                          : 1 280 pixels
Height                         : 720 pixels
Display aspect ratio           : 16:9
Frame rate mode                : Constant
Frame rate                     : 23.976 fps
Color space                    : YUV
Chroma subsampling             : 4:2:0
Bit depth                      : 8 bits
Scan type                      : Progressive
Bits/(Pixel*Frame)             : 0.251
Stream size                    : 1.91 GiB (85%)
Writing library                : core 128 r2216 198a7ea
Encoding settings              : cabac=1 / ref=5 / deblock=1:0:0 / analyse=0x3:0x133 / me=umh / subme=7 / psy=1 / psy_rd=1.00:0.00 / mixed_ref=1 / me_range=16 / chroma_me=1 / trellis=1 / 8x8dct=1 / cqm=0 / deadzone=21,11 / fast_pskip=0 / chroma_qp_offset=-2 / threads=12 / lookahead_threads=2 / sliced_threads=0 / nr=0 / decimate=1 / interlaced=0 / bluray_compat=0 / constrained_intra=0 / bframes=3 / b_pyramid=2 / b_adapt=1 / b_bias=0 / direct=1 / weightb=1 / open_gop=0 / weightp=2 / keyint=250 / keyint_min=23 / scenecut=40 / intra_refresh=0 / rc_lookahead=40 / rc=2pass / mbtree=1 / bitrate=5556 / ratetol=1.0 / qcomp=0.60 / qpmin=0 / qpmax=69 / qpstep=4 / cplxblur=20.0 / qblur=0.5 / ip_ratio=1.40 / aq=1:1.00
Language                       : English
Default                        : No
Forced                         : No

Audio #1
ID                             : 2
Format                         : AC-3
Format/Info                    : Audio Coding 3
Mode extension                 : CM (complete main)
Format settings, Endianness    : Big
Codec ID                       : A_AC3
Duration                       : 50mn 24s
Bit rate mode                  : Constant
Bit rate                       : 192 Kbps
Channel(s)                     : 2 channels
Channel positions              : Front: L R
Sampling rate                  : 48.0 KHz
Frame rate                     : 31.250 fps (1536 spf)
Compression mode               : Lossy
Stream size                    : 69.2 MiB (3%)
Title                          : Інтер
Language                       : Ukrainian
Default                        : Yes
Forced                         : No

Audio #2
ID                             : 3
Format                         : AC-3
Format/Info                    : Audio Coding 3
Mode extension                 : CM (complete main)
Format settings, Endianness    : Big
Codec ID                       : A_AC3
Duration                       : 50mn 24s
Bit rate mode                  : Constant
Bit rate                       : 640 Kbps
Channel(s)                     : 6 channels
Channel positions              : Front: L C R, Side: L R, LFE
Sampling rate                  : 48.0 KHz
Frame rate                     : 31.250 fps (1536 spf)
Compression mode               : Lossy
Stream size                    : 231 MiB (10%)
Title                          : Original
Language                       : English
Default                        : No
Forced                         : No

Text
ID                             : 4
Format                         : UTF-8
Codec ID                       : S_TEXT/UTF8
Codec ID/Info                  : UTF-8 Plain Text
Language                       : English
Default                        : No
Forced                         : No

Menu
00:00:00.000                   : en:00:00:00.000
00:00:59.059                   : en:00:00:59.059
00:02:30.150                   : en:00:02:30.150
00:09:54.844                   : en:00:09:54.844
00:19:29.502                   : en:00:19:29.502
00:29:04.034                   : en:00:29:04.034
00:39:56.519                   : en:00:39:56.519
00:48:57.101                   : en:00:48:57.101

Джерело:
Особиста оцінка: 7/10

За записи з ТБ подяка пану POMEO


Бронзовий реліз (на рейтинг впливає 75% завантаженого)
 Трекер:    Зареєстрований   

Завантажити / скачати серіал українською



відео для новачків



 Зареєстрований:   2016-02-26 23:48
 Розмір:   18.01 GB 
 Оцінка серіалу:   8/10 (Голосів: 8)
   
ika1963 
Відео Гуртом - дизайнер
Відео Гуртом - дизайнер


З нами з: 13.05.10
Востаннє: 03.12.20
Повідомлень: 301

2016-02-24 21:28  
Треба себе примусити, щоб подивитися кожну наступну серію... Усе якось штучно і не дуже цікаво... Хоча б 1-й сезон переглянути. Sad (1)
krigg070 
Відео Гуртом - фільмокрай
Відео Гуртом - фільмокрай


З нами з: 29.10.14
Востаннє: 04.12.20
Повідомлень: 1819

2016-02-26 23:53  
Реліз оновлено! Додано 5-8 серії.

krigg070 
Відео Гуртом - фільмокрай
Відео Гуртом - фільмокрай


З нами з: 29.10.14
Востаннє: 04.12.20
Повідомлень: 1819

2016-02-27 12:58  
Продублював реліз на ex.ua
Slavchik_ua 
Частий відвідувач


З нами з: 16.01.16
Востаннє: 04.12.20
Повідомлень: 34

2016-02-27 13:31  
krigg070
Дуже дякую! За таку роботу. Чекаю, другий сезон)

skuline 
Свій


З нами з: 17.12.11
Востаннє: 01.12.20
Повідомлень: 122

2017-06-07 19:43  
Мені серіал сподобався
Ваш часовий пояс: GMT + 2 Години

Нова тема   Відповісти