Паранорман / ParaNorman (2012) 1080p 3D Ukr/Eng | Sub Ukr/Eng [Half OverUnder]

Нові коментарі

Нова тема   Відповісти
Автор Повідомлення
-VipeR- 
VIP


З нами з: 17.07.08
Востаннє: 22.05.17
Повідомлень: 288

2016-02-24 14:15  
Паранорман / ParaNorman (2012) 1080p 3D Ukr/Eng | Sub Ukr/Eng [Half OverUnder]

Паранорман / ParaNorman (2012) 1080p 3D Ukr/Eng | Sub Ukr/Eng [Half OverUnder]


Жанр: анімація, комедія, пригоди, жахи
Країна: США



Кінокомпанія: Laika Entertainment
Режисер: Кріс Батлер, Сем Фелл
Актори: Коді Сміт-МакФі, Анна Кендрік, Леслі Ман, Джон Гудмен, Крістофер Мінц-Плассе, Кейсі Афлек, Джодель Ферланд, Бернард Хілл, Джеремі Шеда, Джефф Гарлін

Сюжет:
Норман, Паранорман. Єдина надія напівсонного містечка в боротьбі з полчищами нечисті. Його зброя - супер-мега-дар: вміння спілкуватися з примарами. Втім, мерці - не головна небезпека, куди гірше - дурні дорослі з дробовиками.


Тривалість: 01:32:14
Якість: 1080p 3D [HalfOverUnder] Ash61
Відео:
кодек:
розмір кадру: 1920 х 1080
бітрейт: 6373 кб/с

Аудіо # 1:
мова: українська
переклад: професійний дубльований
кодек: 5.1
бітрейт: 448 кб/с

Аудіо # 2:
мова: англійська
переклад: оригінал
кодек: 5.1
бітрейт: 448 кб/с

Субтитри:
мова: українська
тип: програмні (м'які)
формат: *.srt

Субтитри:
мова: англійська
тип: програмні (м'які)
формат: *.srt
Info
Код:
General
Unique ID                      : 207945410942003696825265689763502487205 (0x9C70D451CBD5AE7AB0FD24456D49F6A5)
Complete name                  : D:\3D\Мультики\ParaNorman (2012) 1080p 3D Ukr Eng [HalfOverUnder].
Format                         :
Format version                 : Version 4 / Version 2
File size                      : 4.68 GiB
Duration                       : 1h 32mn
Overall bit rate               : 7 271 Kbps
Movie name                     : Паранорман / ParaNorman (2012)
Encoded date                   : UTC 2016-02-24 10:01:05
Writing application            : mkvmerge v8.8.0 ('Wind at my back') 64bit
Writing library                : libebml v1.3.3 + libmatroska v1.4.4

Video
ID                             : 1
Format                         : AVC
Format/Info                    : Advanced Video Codec
Format profile                 : [email protected]
Format settings, CABAC         : Yes
Format settings, ReFrames      : 4 frames
Codec ID                       : V_MPEG4/ISO/AVC
Duration                       : 1h 32mn
Bit rate                       : 6 373 Kbps
Width                          : 1 920 pixels
Height                         : 1 080 pixels
Display aspect ratio           : 16:9
Frame rate mode                : Constant
Frame rate                     : 23.976 (24000/1001) fps
Color space                    : YUV
Chroma subsampling             : 4:2:0
Bit depth                      : 8 bits
Scan type                      : Progressive
Bits/(Pixel*Frame)             : 0.128
Stream size                    : 4.11 GiB (88%)
Title                          : by Ash61
Writing library                : core 116 r2074 2641b9e
Encoding settings              : cabac=1 / ref=4 / deblock=1:-3:-3 / analyse=0x3:0x113 / me=umh / subme=9 / psy=1 / psy_rd=1.00:0.15 / mixed_ref=1 / me_range=32 / chroma_me=1 / trellis=2 / 8x8dct=1 / cqm=0 / deadzone=21,11 / fast_pskip=1 / chroma_qp_offset=-3 / threads=12 / sliced_threads=0 / nr=0 / decimate=1 / interlaced=0 / bluray_compat=0 / constrained_intra=0 / bframes=6 / b_pyramid=2 / b_adapt=2 / b_bias=0 / direct=3 / weightb=1 / open_gop=0 / weightp=2 / keyint=250 / keyint_min=23 / scenecut=40 / intra_refresh=0 / rc_lookahead=60 / rc=crf / mbtree=1 / crf=16.0 / qcomp=0.70 / qpmin=0 / qpmax=69 / qpstep=4 / vbv_maxrate=40000 / vbv_bufsize=40000 / crf_max=0.0 / nal_hrd=none / frame-packing=4 / ip_ratio=1.40 / aq=1:0.70
Language                       : English
Default                        : Yes
Forced                         : No

Audio #1
ID                             : 2
Format                         : AC-3
Format/Info                    : Audio Coding 3
Mode extension                 : CM (complete main)
Format settings, Endianness    : Big
Codec ID                       : A_AC3
Duration                       : 1h 32mn
Bit rate mode                  : Constant
Bit rate                       : 448 Kbps
Channel(s)                     : 6 channels
Channel positions              : Front: L C R, Side: L R, LFE
Sampling rate                  : 48.0 KHz
Frame rate                     : 31.250 fps (1536 spf)
Compression mode               : Lossy
Stream size                    : 295 MiB (6%)
Title                          : Dub LeDoyen Studio [Hurtom-Skiff]
Language                       : Ukrainian
Default                        : Yes
Forced                         : No

Audio #2
ID                             : 3
Format                         : AC-3
Format/Info                    : Audio Coding 3
Mode extension                 : CM (complete main)
Format settings, Endianness    : Big
Codec ID                       : A_AC3
Duration                       : 1h 32mn
Bit rate mode                  : Constant
Bit rate                       : 448 Kbps
Channel(s)                     : 6 channels
Channel positions              : Front: L C R, Side: L R, LFE
Sampling rate                  : 48.0 KHz
Frame rate                     : 31.250 fps (1536 spf)
Compression mode               : Lossy
Stream size                    : 295 MiB (6%)
Title                          : Original
Language                       : English
Default                        : No
Forced                         : No

Text #1
ID                             : 4
Format                         : UTF-8
Codec ID                       : S_TEXT/UTF8
Codec ID/Info                  : UTF-8 Plain Text
Duration                       : 1h 25mn
Bit rate                       : 83 bps
Count of elements              : 916
Stream size                    : 52.4 KiB (0%)
Title                          : Ukr Full [Hurtom-AlanAlan]
Language                       : Ukrainian
Default                        : No
Forced                         : No

Text #2
ID                             : 5
Format                         : UTF-8
Codec ID                       : S_TEXT/UTF8
Codec ID/Info                  : UTF-8 Plain Text
Duration                       : 1h 24mn
Bit rate                       : 59 bps
Count of elements              : 1335
Stream size                    : 36.7 KiB (0%)
Title                          : Eng Full
Language                       : English
Default                        : No
Forced                         : No

Menu
00:00:00.000                   : :Chapter 01
00:04:55.420                   : :Chapter 02
00:08:29.426                   : :Chapter 03
00:11:38.865                   : :Chapter 04
00:15:10.576                   : :Chapter 05
00:18:10.673                   : :Chapter 06
00:21:54.146                   : :Chapter 07
00:26:25.501                   : :Chapter 08
00:30:04.970                   : :Chapter 09
00:33:56.117                   : :Chapter 10
00:38:16.920                   : :Chapter 11
00:43:06.542                   : :Chapter 12
00:49:36.849                   : :Chapter 13
00:52:46.789                   : :Chapter 14
00:56:46.194                   : :Chapter 15
01:01:15.964                   : :Chapter 16
01:05:53.575                   : :Chapter 17
01:11:51.057                   : :Chapter 18
01:18:19.486                   : :Chapter 19
01:25:07.394                   : :Chapter 20
Скріншоти
Джерело: &
Особиста оцінка: 0 - не дивився


 Трекер:    Зареєстрований   

Завантажити / скачати мультфільм українською



відео для новачків



 Зареєстрований:   2016-02-24 14:15
 Розмір:   4.68 GB 
 Оцінка мультфільму:   9/10 (Голосів: 5)
   
Інші релізи
   Паранорман / ParaNorman (2012) 2xUkr/Eng | sub Ukr/Eng kicyunya  11 / 0   2.18 GB   2017-01-10 03:27 
   Паранорман / ParaNorman (2012) 720p Ukr/Eng | sub Ukr/Eng pyatachok  7 / 0   2.49 GB   2013-02-14 00:36 
   Паранорман / ParaNorman (2012) 1080p Ukr/Eng | Sub Ukr/Eng igor911  7 / 0   4.37 GB   2013-02-13 20:40 
   Паранорман / ParaNorman (2012) Ukr/Eng | sub Ukr/Eng Skiff  9 / 0   1.74 GB   2013-02-13 15:26 
Ваш часовий пояс: GMT + 2 Години

Нова тема   Відповісти