Вартовий Місяця / Mune, le gardien de la lune (2014) 1080p 3D [Half OverUnder] Ukr/Fre

Нові коментарі

Нова тема   Відповісти
Автор Повідомлення
-VipeR- 
VIP


З нами з: 17.07.08
Востаннє: 19.08.17
Повідомлень: 289

2016-02-22 11:50  
Вартовий Місяця / Mune, le gardien de la lune (2014) 1080p 3D [Half OverUnder] Ukr/Fre

Вартовий Місяця / Mune, le gardien de la lune (2014) 1080p 3D [Half OverUnder] Ukr/Fre


Жанр: анімація
Країна: Франція



Кінокомпанія: Onyx Films, Kinology, ON Animation Studios
Режисер: Александр Ебоян, Бенуа Філіппон
Актори: Омар Сі, Ізіа Іжлен, Майкл Ґреґоріо, Шафік Ахмад, Бенуа Алеманнію, Шеннон Арчі, Федір Аткіне, Джошуа Дж. Баллард, Демієн Буассо, Еммануель Кюртіль

Сюжет:
На дикій планеті, де зміна дня і ночі здійснюється вручну, юного фавна М'юна несподівано обирають вартовим Місяця. Але він майже відразу втрачає його! Скориставшись цим, цар підземного світу Некрос краде і гасить Сонце. Тепер, щоб врятувати планету, М'юн разом з відважною дівчинкою з воску Ґлім і зарозумілим Согоном, зберігачем Сонця, повинні відправитися у дивну і небезпечну подорож.


Тривалість: 01:21:30
Якість: 1080p 3D [HalfOverUnder] Ash61
Відео:
кодек:
розмір кадру: 1920 х 1080
бітрейт: 6818 кб/с

Аудіо # 1:
мова: українська
переклад: професійний дубльований
кодек: 2.0
бітрейт: 192 кб/с

Аудіо # 2:
мова: французька
переклад: оригінал
кодек: 5.1
бітрейт: 640 кб/с
Info
Код:
General
Unique ID                      : 216809629030168991490187859650251733565 (0xA31C04037A59E0BC84B9C9F093AA3A3D)
Complete name                  : D:\3D\Мультики\Mune Le Gardien De La Lune (2014) 1080p 3D [Half OVerUnder] Ukr Fre.
Format                         :
Format version                 : Version 4 / Version 2
File size                      : 4.59 GiB
Duration                       : 1h 25mn
Overall bit rate               : 7 652 Kbps
Movie name                     : Вартовий Місяця / Mune, le gardien de la lune 3D
Encoded date                   : UTC 2016-02-21 21:02:22
Writing application            : mkvmerge v8.8.0 ('Wind at my back') 64bit
Writing library                : libebml v1.3.3 + libmatroska v1.4.4

Video
ID                             : 1
Format                         : AVC
Format/Info                    : Advanced Video Codec
Format profile                 : [email protected]
Format settings, CABAC         : Yes
Format settings, ReFrames      : 4 frames
Codec ID                       : V_MPEG4/ISO/AVC
Duration                       : 1h 25mn
Bit rate                       : 6 818 Kbps
Width                          : 1 920 pixels
Height                         : 1 080 pixels
Display aspect ratio           : 16:9
Frame rate mode                : Constant
Frame rate                     : 23.976 (24000/1001) fps
Color space                    : YUV
Chroma subsampling             : 4:2:0
Bit depth                      : 8 bits
Scan type                      : Progressive
Bits/(Pixel*Frame)             : 0.137
Stream size                    : 4.09 GiB (89%)
Title                          : by Ash61
Writing library                : core 146 r2538 121396c
Encoding settings              : cabac=1 / ref=4 / deblock=1:-3:-3 / analyse=0x3:0x113 / me=umh / subme=10 / psy=1 / psy_rd=1.00:0.00 / mixed_ref=1 / me_range=32 / chroma_me=1 / trellis=2 / 8x8dct=1 / cqm=0 / deadzone=21,11 / fast_pskip=1 / chroma_qp_offset=-2 / threads=12 / lookahead_threads=3 / sliced_threads=0 / nr=0 / decimate=1 / interlaced=0 / bluray_compat=0 / constrained_intra=0 / bframes=10 / b_pyramid=2 / b_adapt=2 / b_bias=0 / direct=3 / weightb=1 / open_gop=0 / weightp=2 / keyint=250 / keyint_min=23 / scenecut=40 / intra_refresh=0 / rc_lookahead=60 / rc=crf / mbtree=1 / crf=15.0 / qcomp=0.70 / qpmin=0 / qpmax=69 / qpstep=4 / vbv_maxrate=40000 / vbv_bufsize=30000 / crf_max=0.0 / nal_hrd=none / filler=0 / frame-packing=4 / ip_ratio=1.40 / aq=1:0.70
Language                       : English
Default                        : Yes
Forced                         : No

Audio #1
ID                             : 2
Format                         : AC-3
Format/Info                    : Audio Coding 3
Mode extension                 : CM (complete main)
Format settings, Endianness    : Big
Codec ID                       : A_AC3
Duration                       : 1h 25mn
Bit rate mode                  : Constant
Bit rate                       : 192 Kbps
Channel(s)                     : 2 channels
Channel positions              : Front: L R
Sampling rate                  : 48.0 KHz
Frame rate                     : 31.250 fps (1536 spf)
Compression mode               : Lossy
Stream size                    : 118 MiB (3%)
Title                          : Дубляж - ААА-sound
Language                       : Ukrainian
Default                        : No
Forced                         : No

Audio #2
ID                             : 3
Format                         : AC-3
Format/Info                    : Audio Coding 3
Mode extension                 : CM (complete main)
Format settings, Endianness    : Big
Codec ID                       : A_AC3
Duration                       : 1h 25mn
Bit rate mode                  : Constant
Bit rate                       : 640 Kbps
Channel(s)                     : 6 channels
Channel positions              : Front: L C R, Side: L R, LFE
Sampling rate                  : 48.0 KHz
Frame rate                     : 31.250 fps (1536 spf)
Compression mode               : Lossy
Stream size                    : 393 MiB (8%)
Title                          : Original
Language                       : French
Default                        : No
Forced                         : No

Menu
00:00:00.000                   : :1
00:06:17.752                   : :2
00:13:55.208                   : :3
00:19:02.015                   : :4
00:26:12.069                   : :5
00:34:47.751                   : :6
00:42:15.907                   : :7
00:51:53.777                   : :8
01:01:02.492                   : :9
01:09:13.858                   : :10
01:14:02.938                   : :11
01:18:38.671                   : :12
Скріншоти
Джерело: &
Особиста оцінка: 0 - не дивився


 Трекер:    Зареєстрований   

Завантажити / скачати мультфільм українською



відео для новачків



 Зареєстрований:   2016-02-22 11:50
 Розмір:   4.59 GB 
 Оцінка мультфільму:   10/10 (Голосів: 7)
   
Інші релізи
nata207 
Новенький


З нами з: 28.02.14
Востаннє: 22.05.16
Повідомлень: 4

2016-04-16 21:53  
Дуже дякую за можливість показувати дітям мультфільми українською!
Ваш часовий пояс: GMT + 2 Години

Нова тема   Відповісти