Це — Англія '86 / This is England '86 (Сезон 1) (2010) 720p Eng | sub Ukr/Eng

Нові коментарі

Нова тема   Відповісти
Автор Повідомлення
yurekkk 
Свій


З нами з: 11.12.12
Востаннє: 24.11.20
Повідомлень: 105

2016-02-15 22:35  
Це — Англія '86 / This is England'86 (Сезон 1) (2010) 720p Eng | sub Ukr/Eng

Це — Англія '86 / This is England '86 (Сезон 1) (2010) 720p Eng | sub Ukr/Eng


Жанр: Драма, кримінал
Країна: Велика Британія



Кінокомпанія: Warp Films
Режисер: Шейн Медоуз (Shane Meadows), Том Гарпер (Tom Harper)
Актори: Томас Тарґуз (Thomas Turgoose), Стівен Ґрем (Stephen Graham), Ендрю Шим (Andrew Shim), Вікі Мак-Клюр (Vicky McClure), Джозеф Ґілґан (Joseph Gilgun), Розамунд Гансон (Rosamund Hanson), Ендрю Елліс (Andrew Ellis), Перрі Бенсон (Perry Benson), Шанель Крессвел (Chanel Cresswell), Джонні Гарріс (Johnny Harris), Джордж Ньютон (George Newton), Джо Гартлі (Jo Hartly), Майкл Сока (Michael Socha), Ганна Волтерс (Hannah Walters).

Сюжет:
1986 рік. Поки легендарний Марадона забиває руками збірній Англії з футболу, добре відома нам за стрічкою «Це — Англія» (This is England) ватага скінхедів з невеликого портового містечка живе яскравим життям. Вони кохають та зраджують одне одного, товаришують і сваряться, проявляють шляхетність і ницість, тікають з дому від батьків і роблять багато інших речей. Втім, дивіться самі.


Тривалість: 1 серія: ~47 хв. (цілком серій: 4)
Якість:
Відео:
розмір кадру: 1280 х 720
кодек: AVC
бітрейт: 5504 кб/с

Аудіо:
мова: англійська
переклад: оригінал
кодек: 6
бітрейт: 1509 кб/с

Субтитри:
мова: українська
тип: програмні (м'які)
формат: *.srt
переклад: yurekkk з англійської

Субтитри:
мова: англійська
тип: програмні (м'які)
формат: *.srt
Скріншоти
Info
Unique ID: 193987342613405893740322487478996027870 (0x91F09A6B207B22B88CAD06877C41C9DE)
Complete name: D:\Розібрати\Фільми\This.is.England.86.2010.720p.BluRay.-AVCHD [PublicHD]\This is England 86\This.is.England.86.Part.1.720p.BluRay.-AVCHD.
Format:
Format version: Version 2
File size: 2.18 GiB
Duration: 44mn 35s
Overall bit rate: 7 014 Kbps
Encoded date: UTC 2016-02-15 19:45:57
Writing application: v5.6.0 ('Kenya Kane') built on May 27 2012 16:44:04
Writing library: libebml v1.2.3 + v1.3.0

ID: 1
Format: AVC
Format/Info: Advanced Video Codec
Format profile: [email protected]
Format settings, CABAC: Yes
Format settings, ReFrames: 5 frames
Codec ID: V_MPEG4/ISO/AVC
Duration: 44mn 35s
Bit rate: 5 504 Kbps
Width: 1 280 pixels
Height: 720 pixels
Display aspect ratio: 16:9
Frame rate mode: Constant
Frame rate: 25.000 fps
Color space: YUV
Chroma subsampling: 4:2:0
Bit depth: 8 bits
Scan type: Progressive
Bits/(Pixel*Frame): 0.239
Stream size: 1.67 GiB (76%)
Writing library: core 114 r1913 5fd3dce
Encoding settings: cabac=1 / ref=5 / deblock=1:0:0 / analyse=0x3:0x133 / me=umh / subme=7 / psy=1 / psy_rd=1.00:0.00 / mixed_ref=1 / me_range=16 / chroma_me=1 / trellis=1 / 8x8dct=1 / cqm=0 / deadzone=21,11 / fast_pskip=0 / chroma_qp_offset=-2 / threads=12 / sliced_threads=0 / nr=0 / decimate=1 / interlaced=0 / constrained_intra=0 / bframes=3 / b_pyramid=2 / b_adapt=1 / b_bias=0 / direct=1 / weightb=1 / open_gop=0 / weightp=2 / keyint=250 / keyint_min=25 / scenecut=40 / intra_refresh=0 / rc_lookahead=40 / rc=2pass / mbtree=1 / bitrate=5504 / ratetol=1.0 / qcomp=0.60 / qpmin=0 / qpmax=69 / qpstep=4 / cplxblur=20.0 / qblur=0.5 / ip_ratio=1.40 / aq=1:1.00
Language: English
Default: No
Forced: No

ID: 2
Format:
Format/Info: Digital Theater Systems
Mode: 16
Format settings, Endianness: Big
Codec ID: A_DTS
Duration: 44mn 35s
Bit rate mode: Constant
Bit rate: 1 509 Kbps
Channel(s): 6 channels
Channel positions: Front: L C R, Side: L R, LFE
Sampling rate: 48.0 KHz
Frame rate: 93.750 fps (512 spf)
Bit depth: 24 bits
Compression mode: Lossy
Stream size: 481 MiB (22%)
Language: English
Default: Yes
Forced: No

ID: 3
Format: UTF-8
Codec ID: S_TEXT/UTF8
Codec ID/Info: UTF-8 Plain Text
Language: Ukrainian
Default: Yes
Forced: No

ID: 4
Format: UTF-8
Codec ID: S_TEXT/UTF8
Codec ID/Info: UTF-8 Plain Text
Language: English
Default: No
Forced: No
Особиста оцінка: 10 - без зайвих вагань рекомендую всім!


Золотий реліз (завантажене не впливає на рейтинг)
 Трекер:    Зареєстрований   

Завантажити / скачати серіал українською



відео для новачків



 Зареєстрований:   2016-02-15 22:39
 Розмір:   8.74 GB 
 Оцінка серіалу:   9.7/10 (Голосів: 15)
   
Milner 
Поважний учасник


З нами з: 19.07.08
Востаннє: 21.11.20
Повідомлень: 170

2016-04-12 11:24  
чи можете залити субтитри окремим файлом ??
yurekkk 
Свій


З нами з: 11.12.12
Востаннє: 24.11.20
Повідомлень: 105

2016-04-18 20:42  
Milner
та це ж . модератори забороняють так робити. напишіть у приватні повідомлення свій е-мейл і я вам вишлю.

St.Nicolas 
Новенький


З нами з: 21.12.14
Востаннє: 13.03.18
Повідомлень: 4

2016-09-24 14:44  
Роздайте будь-ласка
yurekkk 
Свій


З нами з: 11.12.12
Востаннє: 24.11.20
Повідомлень: 105

2016-10-06 21:41  
St.Nicolas
Я стаю на роздачі.

Ваш часовий пояс: GMT + 2 Години

Нова тема   Відповісти