К-9: Собача робота / K-9 (1989) 1080i 2xUkr/Eng | Sub Eng

Нові коментарі

Нова тема   Відповісти
Автор Повідомлення
RAD0N 
Новенький


З нами з: 27.11.14
Востаннє: 16.08.16
Повідомлень: 14

2016-02-15 14:27  
К-9: Собача робота / K-9 (1989) 1080i 2xUkr/Eng | Sub Eng



Він не собака, він поліцейський!

Жанр: детектив, комедія
Країна: США



Кінокомпанія: Universal Pictures
Режисер: Род Деніель (Rod Daniel)
Актори: Джеймс Белуші ( James Belushi), Джеррі Лі (Jerry Lee), Мел Харріс (Mel Harris), Кевін Тіг ( Kevin Tighe) |

Тривалість: 01:37:07
Якість: 1080i
Відео:
кодек:
розмір кадру: 1 920 х 1 080
бітрейт: 10,9 Мбіт/с

Аудіо # 1:
мова: українська
переклад: двоголосий закадровий
кодек: MP3
бітрейт: 320 кб/с

Аудіо # 2:
мова: українська
переклад: багатоголосий закадровий (озвучення ТРК Україна)
кодек: MP3
бітрейт: 256 кб/с

Аудіо # 3:
мова: англійська
переклад: оригінал
кодек: 2.0
бітрейт: 192 кб/с

Джерело озвучення:



Субтитри:
мова: англійська
тип: пререндерні
формат: *.pgs

Висловлюю подяку POMEO за надану аудіодоріжку ТРК Україна

Нема нікого на роздачі - качай з хмаринки
https://mega.nz/#!GphVzALD!2jvgDHwx2YBWtuhJbZxVvzfOytRk_ckb5Hgcb23SxDs
Info
General

Format :
Format version : Version 4 / Version 2
File size : 7.88 GiB
Duration : 1h 37mn
Overall bit rate mode : Variable
Overall bit rate : 11.6 Mbps
Encoded date : UTC 2016-02-11 08:34:44
Writing application : mkvmerge v8.8.0 ('Wind at my back') 32bit
Writing library : libebml v1.3.3 + libmatroska v1.4.4
DURATION : 01:37:08.990000000
NUMBER_OF_FRAMES : 223141
NUMBER_OF_BYTES : 233159575
_STATISTICS_WRITING_APP : mkvmerge v8.8.0 ('Wind at my back') 32bit
_STATISTICS_WRITING_DATE_UTC : 2016-02-11 08:34:44
_STATISTICS_TAGS : BPS DURATION NUMBER_OF_FRAMES NUMBER_OF_BYTES

Video
ID : 1
Format : AVC
Format/Info : Advanced Video Codec
Format profile : [email protected]
Format settings, CABAC : Yes
Format settings, ReFrames : 4 frames
Codec ID : V_MPEG4/ISO/AVC
Duration : 1h 37mn
Bit rate mode : Variable
Bit rate : 10.9 Mbps
Maximum bit rate : 40.0 Mbps
Width : 1 920 pixels
Height : 1 080 pixels
Display aspect ratio : 16:9
Frame rate mode : Constant
Frame rate : 25.000 fps
Color space : YUV
Chroma subsampling : 4:2:0
Bit depth : 8 bits
Scan type : Interlaced
Scan order : Top Field First
Bits/(Pixel*Frame) : 0.210
Stream size : 7.38 GiB (94%)
Language : Ukrainian
Default : Yes
Forced : No
Color primaries : BT.709
Transfer characteristics : BT.709
Matrix coefficients : BT.709

Audio #1
ID : 2
Format : MPEG Audio
Format version : Version 1
Format profile : Layer 3
Mode : Joint stereo
Mode extension : MS Stereo
Codec ID : A_MPEG/L3
Codec ID/Hint : MP3
Duration : 1h 37mn
Bit rate mode : Constant
Bit rate : 320 Kbps
Channel(s) : 2 channels
Sampling rate : 44.1 KHz
Compression mode : Lossy
Delay relative to video : 5ms
Stream size : 222 MiB (3%)
Language : Ukrainian
Default : Yes
Forced : No

Audio #2
ID : 3
Format : MPEG Audio
Format version : Version 1
Format profile : Layer 3
Mode : Joint stereo
Codec ID : A_MPEG/L3
Codec ID/Hint : MP3
Duration : 1h 37mn
Bit rate mode : Constant
Bit rate : 256 Kbps
Channel(s) : 2 channels
Sampling rate : 44.1 KHz
Compression mode : Lossy
Stream size : 178 MiB (2%)
Language : Ukrainian
Default : No
Forced : No

Audio #3
ID : 3
Format : AC-3
Format/Info : Audio Coding 3
Mode extension : CM (complete main)
Format settings, Endianness : Big
Codec ID : A_AC3
Duration : 1h 37mn
Bit rate mode : Constant
Bit rate : 192 Kbps
Channel(s) : 2 channels
Channel positions : Front: L R
Sampling rate : 48.0 KHz
Bit depth : 16 bits
Compression mode : Lossy
Delay relative to video : 2ms
Stream size : 133 MiB (2%)
Language : English
Default : No
Forced : No

Text
ID : 4
Format : PGS
Muxing mode : zlib
Codec ID : S_HDMV/PGS
Codec ID/Info : The same subtitle format used on BDs/HD-DVDs
Language : English
Default : No
Forced : No
Скріншоти





Срібний реліз (на рейтинг впливає 50% завантаженого)
 Трекер:    Зареєстрований   

Завантажити / скачати фільм українською



відео для новачків



 Зареєстрований:   2016-02-16 09:24
 Розмір:   8.05 GB 
 Оцінка фільму:   10/10 (Голосів: 3)
   
Інші релізи
POMEO 
Відео Гуртом - запис з ТБ
Відео Гуртом - запис з ТБ


З нами з: 01.07.08
Востаннє: 24.05.17
Повідомлень: 824

2016-02-15 14:36  
є інша озвучка ex.ua/view/78449264
RAD0N 
Новенький


З нами з: 27.11.14
Востаннє: 16.08.16
Повідомлень: 14

2016-02-15 20:13  
Дякуючи POMEO домонтував доріжку озвучення ТРК Україна. Завтра вранці оновлю торрент.
(На роздачі буду з 8.30 до 17.00 по буднях)

igor911 
Відео Гуртом
Відео Гуртом


З нами з: 18.01.08
Востаннє: 25.05.17
Повідомлень: 6784

2016-02-16 12:07  
RAD0N, звук краще зберігати у форматі , а не mp3.
Віктор 
Відео Гуртом - субтитрування
Відео Гуртом - субтитрування


З нами з: 09.01.10
Востаннє: 24.05.17
Повідомлень: 8685

2016-02-16 12:10  
А звідки ? Блюрей наче не виходив, я не знайшов.
RAD0N 
Новенький


З нами з: 27.11.14
Востаннє: 16.08.16
Повідомлень: 14

2016-02-16 12:29  
igor911 довго читав за порівняння цих форматів, так явних переваг и не знайшов, ніби наші вуха не чують різниці. У мене просто проектор не бачить АС3 формата, тому отак отHappy. Але добре в майбутньому буду кодувати у .

Додано через 15 хвилин 48 секунд:

Віктор 4 дні тягнув з закордонного торренту, там майже 20 гіг було, куча файлів серед них відео було зі незрозумілим форматом, не запам'ятав). Перекодував в мкв, наче нічого не маніпулював. Може щось наплутав.

igor911 
Відео Гуртом
Відео Гуртом


З нами з: 18.01.08
Востаннє: 25.05.17
Повідомлень: 6784

2016-02-16 12:48  
RAD0N написано:
Frame rate : 25.000 fps
Scan type : Interlaced

очевидно, то був HDTV 1080i

RAD0N 
Новенький


З нами з: 27.11.14
Востаннє: 16.08.16
Повідомлень: 14

2016-02-16 12:59  
igor911
ТАк це виходить HDTV Rip, підкажіть як правильно виправити тему, дякуюHappy

igor911 
Відео Гуртом
Відео Гуртом


З нами з: 18.01.08
Востаннє: 25.05.17
Повідомлень: 6784

2016-02-16 13:10  
я вже підправив
hetzendorf 
Відео Гуртом - підтримка та поширення
Відео Гуртом - підтримка та поширення


З нами з: 23.07.15
Востаннє: 25.05.17
Повідомлень: 333

2016-04-01 12:04  
З mega.nz не качайте — файл битий, розмір від торента відрізняється.
Pegass 
VIP


З нами з: 17.12.09
Востаннє: 25.05.17
Повідомлень: 434

2017-04-20 02:16  
є вже Remux-си до перших двох фільмів. оновіть хтось.
Віктор написано:
А звідки ? Блюрей наче не виходив, я не знайшов.

Вже є)
МедіаІнфо до ''K-9 (1989) Remux''

Video
ID : 1
Format : AVC
Format/Info : Advanced Video Codec
Format profile : [email protected]
Format settings, CABAC : Yes
Format settings, ReFrames : 4 frames
Format settings, GOP : M=3, N=24
Codec ID : V_MPEG4/ISO/AVC
Duration : 1h 41mn
Bit rate mode : Variable
Maximum bit rate : 36.0 Mbps
Width : 1 920 pixels
Height : 1 080 pixels
Display aspect ratio : 16:9
Frame rate mode : Constant
Frame rate : 23.976 (24000/1001) fps
Standard : NTSC
Color space : YUV
Chroma subsampling : 4:2:0
Bit depth : 8 bits
Scan type : Progressive
Title : K-9.1989.1080p.BluRay.REMUX.AVC.-HD.MA.2.0-FGT
Language : English
Default : No
Forced : No
Color range : Limited
Color primaries : BT.709
Transfer characteristics : BT.709
Matrix coefficients : BT.709

Audio #1
ID : 2
Format :
Format/Info : Digital Theater Systems
Format profile : MA / Core
Mode : 16
Format settings, Endianness : Big
Codec ID : A_DTS
Duration : 1h 41mn
Bit rate mode : Variable / Constant
Bit rate : Unknown / 1 509 Kbps
Channel(s) : 2 channels
Channel positions : Front: L R
Sampling rate : 48.0 KHz
Frame rate : 93.750 fps (512 spf)
Bit depth : 16 bits
Compression mode : Lossless / Lossy
Title : K-9.1989.1080p.BluRay.REMUX.AVC.-HD.MA.2.0-FGT
Language : English
Default : Yes
Forced : No

Audio #2
ID : 3
Format :
Format/Info : Digital Theater Systems
Mode : 16
Format settings, Endianness : Big
Codec ID : A_DTS
Duration : 1h 41mn
Bit rate mode : Constant
Bit rate : 1 509 Kbps
Channel(s) : 2 channels
Channel positions : Front: L R
Sampling rate : 48.0 KHz
Frame rate : 93.750 fps (512 spf)
Bit depth : 16 bits
Compression mode : Lossy
Stream size : 1.07 GiB (5%)
Title : K-9.1989.1080p.BluRay.REMUX.AVC.-HD.MA.2.0-FGT
Language : English
Default : No
Forced : No

Menu
00:00:00.000 : en:Chapter 01
00:06:53.913 : en:Chapter 02
00:18:54.174 : en:Chapter 03
00:26:21.454 : en:Chapter 04
00:34:50.505 : en:Chapter 05
00:44:19.490 : en:Chapter 06
00:50:07.587 : en:Chapter 07
01:02:22.780 : en:Chapter 08
01:09:37.298 : en:Chapter 09
01:16:01.098 : en:Chapter 10
01:25:19.614 : en:Chapter 11
01:36:31.327 : en:Chapter 12Video
ID : 1
Format : AVC
Format/Info : Advanced Video Codec
Format profile : [email protected]
Format settings, CABAC : Yes
Format settings, ReFrames : 4 frames
Format settings, GOP : M=3, N=24
Codec ID : V_MPEG4/ISO/AVC
Duration : 1h 41mn
Bit rate mode : Variable
Maximum bit rate : 36.0 Mbps
Width : 1 920 pixels
Height : 1 080 pixels
Display aspect ratio : 16:9
Frame rate mode : Constant
Frame rate : 23.976 (24000/1001) fps
Standard : NTSC
Color space : YUV
Chroma subsampling : 4:2:0
Bit depth : 8 bits
Scan type : Progressive
Title : K-9.1989.1080p.BluRay.REMUX.AVC.-HD.MA.2.0-FGT
Language : English
Default : No
Forced : No
Color range : Limited
Color primaries : BT.709
Transfer characteristics : BT.709
Matrix coefficients : BT.709

Audio #1
ID : 2
Format :
Format/Info : Digital Theater Systems
Format profile : MA / Core
Mode : 16
Format settings, Endianness : Big
Codec ID : A_DTS
Duration : 1h 41mn
Bit rate mode : Variable / Constant
Bit rate : Unknown / 1 509 Kbps
Channel(s) : 2 channels
Channel positions : Front: L R
Sampling rate : 48.0 KHz
Frame rate : 93.750 fps (512 spf)
Bit depth : 16 bits
Compression mode : Lossless / Lossy
Title : K-9.1989.1080p.BluRay.REMUX.AVC.-HD.MA.2.0-FGT
Language : English
Default : Yes
Forced : No

Audio #2
ID : 3
Format :
Format/Info : Digital Theater Systems
Mode : 16
Format settings, Endianness : Big
Codec ID : A_DTS
Duration : 1h 41mn
Bit rate mode : Constant
Bit rate : 1 509 Kbps
Channel(s) : 2 channels
Channel positions : Front: L R
Sampling rate : 48.0 KHz
Frame rate : 93.750 fps (512 spf)
Bit depth : 16 bits
Compression mode : Lossy
Stream size : 1.07 GiB (5%)
Title : K-9.1989.1080p.BluRay.REMUX.AVC.-HD.MA.2.0-FGT
Language : English
Default : No
Forced : No

Menu
00:00:00.000 : en:Chapter 01
00:06:53.913 : en:Chapter 02
00:18:54.174 : en:Chapter 03
00:26:21.454 : en:Chapter 04
00:34:50.505 : en:Chapter 05
00:44:19.490 : en:Chapter 06
00:50:07.587 : en:Chapter 07
01:02:22.780 : en:Chapter 08
01:09:37.298 : en:Chapter 09
01:16:01.098 : en:Chapter 10
01:25:19.614 : en:Chapter 11
01:36:31.327 : en:Chapter 12
МедіаІнфо до ''K-911 (1999) Remux''

Video
ID : 1
Format : AVC
Format/Info : Advanced Video Codec
Format profile : [email protected]
Format settings, CABAC : Yes
Format settings, ReFrames : 4 frames
Codec ID : V_MPEG4/ISO/AVC
Duration : 1h 31mn
Bit rate mode : Variable
Maximum bit rate : 36.0 Mbps
Width : 1 920 pixels
Height : 1 080 pixels
Display aspect ratio : 16:9
Frame rate mode : Constant
Frame rate : 23.976 (24000/1001) fps
Standard : NTSC
Color space : YUV
Chroma subsampling : 4:2:0
Bit depth : 8 bits
Scan type : Progressive
Title : K-911.1999.1080p.BluRay.REMUX.AVC.-HD.MA.5.0-FGT
Language : English
Default : No
Forced : No
Color range : Limited
Color primaries : BT.709
Transfer characteristics : BT.709
Matrix coefficients : BT.709

Audio #1
ID : 2
Format :
Format/Info : Digital Theater Systems
Format profile : MA / Core
Mode : 16
Format settings, Endianness : Big
Codec ID : A_DTS
Duration : 1h 31mn
Bit rate mode : Variable / Constant
Bit rate : Unknown / 1 509 Kbps
Channel(s) : 5 channels
Channel positions : Front: L C R, Side: L R
Sampling rate : 48.0 KHz
Frame rate : 93.750 fps (512 spf)
Bit depth : 16 bits
Compression mode : Lossless / Lossy
Title : K-911.1999.1080p.BluRay.REMUX.AVC.-HD.MA.5.0-FGT
Language : English
Default : Yes
Forced : No

Audio #2
ID : 3
Format :
Format/Info : Digital Theater Systems
Mode : 16
Format settings, Endianness : Big
Codec ID : A_DTS
Duration : 1h 31mn
Bit rate mode : Constant
Bit rate : 1 509 Kbps
Channel(s) : 5 channels
Channel positions : Front: L C R, Side: L R
Sampling rate : 48.0 KHz
Frame rate : 93.750 fps (512 spf)
Bit depth : 16 bits
Compression mode : Lossy
Stream size : 983 MiB (4%)
Title : K-911.1999.1080p.BluRay.REMUX.AVC.-HD.MA.5.0-FGT
Language : English
Default : No
Forced : No

Menu
00:00:00.000 : en:Chapter 01
00:07:57.643 : en:Chapter 02
00:14:52.683 : en:Chapter 03
00:25:25.774 : en:Chapter 04
00:30:48.054 : en:Chapter 05
00:39:14.185 : en:Chapter 06
00:45:56.962 : en:Chapter 07
00:53:46.139 : en:Chapter 08
00:59:28.147 : en:Chapter 09
01:12:04.069 : en:Chapter 10
01:21:14.452 : en:Chapter 11
01:26:22.510 : en:Chapter 12

Lyolic 
Новенький


З нами з: 04.08.09
Востаннє: 25.05.17
Повідомлень: 21

2017-04-23 17:02  
hetzendorf
Або Ви з помилками завантажили, або вже перезалили... Файли ідентичні.

Ваш часовий пояс: GMT + 2 Години

Нова тема   Відповісти